<?xml version="1.0" standalone="no"?>
<!DOCTYPE svg PUBLIC "-//W3C//DTD SVG 1.1//EN" "http://www.w3.org/Graphics/SVG/1.1/DTD/svg11.dtd" >
<svg xmlns="http://www.w3.org/2000/svg" xmlns:xlink="http://www.w3.org/1999/xlink" version="1.1">
<metadata></metadata>
<defs>
<font id="gothamboldregular" horiz-adv-x="1617" >
<font-face units-per-em="2048" ascent="1638" descent="-410" />
<missing-glyph horiz-adv-x="614" />
<glyph horiz-adv-x="0" />
<glyph unicode="&#xd;" horiz-adv-x="681" />
<glyph unicode=" "  horiz-adv-x="614" />
<glyph unicode="&#x09;" horiz-adv-x="614" />
<glyph unicode="&#xa0;" horiz-adv-x="614" />
<glyph unicode="!" horiz-adv-x="663" d="M150 1393v41h364v-41l-96 -906h-172zM166 0v328h332v-328h-332z" />
<glyph unicode="&#x22;" horiz-adv-x="1064" d="M117 780l37 654h344v-11l-224 -643h-157zM600 780l37 654h344v-11l-223 -643h-158z" />
<glyph unicode="#" horiz-adv-x="1433" d="M72 307v262h200l52 303h-181v263h226l51 299h270l-51 -299h297l51 299h270l-51 -299h156v-263h-201l-51 -303h180v-262h-225l-53 -307h-271l54 307h-297l-54 -307h-270l53 307h-155zM543 569h297l51 303h-297z" />
<glyph unicode="$" horiz-adv-x="1323" d="M90 201l160 233q176 -133 334 -166v326q-229 61 -335 160.5t-106 275.5q0 168 117 275.5t313 128.5v118h213v-122q207 -29 381 -152l-137 -240q-131 88 -254 121v-309q233 -63 339 -166.5t106 -275.5q0 -168 -118 -275.5t-317 -130.5v-203h-213v207q-272 35 -483 195z M442 1049q0 -51 31 -85t111 -63v277q-141 -20 -142 -129zM776 258q146 22 146 133q0 53 -32 88t-114 66v-287z" />
<glyph unicode="%" horiz-adv-x="1761" d="M92 1081.5q0 155.5 98.5 262t252 106.5t249.5 -104.5t96 -260t-98 -262t-251.5 -106.5t-250 104.5t-96.5 260zM236 0l1046 1434h244l-1047 -1434h-243zM307 1085.5q0 -75.5 38 -129t97 -53.5q61 0 96 51.5t35 127t-37.5 129t-97.5 53.5q-61 0 -96 -51.5t-35 -127z M973 348.5q0 155.5 98 262t252 106.5t250 -104.5t96 -260t-98 -262t-252 -106.5t-250 104.5t-96 260zM1188 352q0 -76 38 -129t97 -53q61 0 96 51t35 127t-38 129t-97 53q-61 0 -96 -51t-35 -127z" />
<glyph unicode="&#x26;" horiz-adv-x="1425" d="M70 395q0 268 278 396q-100 145 -100 288q0 158 117.5 268.5t316.5 110.5q180 0 291.5 -103.5t111.5 -258.5q0 -260 -301 -377l191 -191q68 106 139 246l232 -127q-106 -193 -189 -303l211 -211l-231 -162l-166 168q-195 -160 -420 -159q-209 0 -345 113.5t-136 301.5z M387 408q0 -76 56.5 -123t144.5 -47q103 -1 207 81l-275 279q-133 -70 -133 -190zM537 1065q0 -84 84 -180q98 37 144 80.5t46 111.5q0 63 -37 99t-98 36q-63 0 -101 -41t-38 -106z" />
<glyph unicode="'" horiz-adv-x="585" d="M117 780l37 654h348v-11l-223 -643h-162z" />
<glyph unicode="(" horiz-adv-x="911" d="M121 588q0 293 141 507t426 369l137 -207q-209 -145 -302 -299.5t-93 -369.5t93 -370t302 -300l-137 -207q-285 156 -426 370t-141 507z" />
<glyph unicode=")" horiz-adv-x="911" d="M86 -82q209 145 302 300t93 370t-93 369.5t-302 299.5l137 207q285 -156 426.5 -369.5t141.5 -506.5t-141.5 -507t-426.5 -370z" />
<glyph unicode="*" horiz-adv-x="880" d="M104 1004l230 96l-230 96l86 147l199 -151l-33 246h168l-32 -246l198 151l86 -147l-229 -96l229 -96l-86 -148l-198 152l32 -246h-168l33 246l-199 -152z" />
<glyph unicode="+" horiz-adv-x="1310" d="M139 580v282h371v369h291v-369h370v-282h-370v-369h-291v369h-371z" />
<glyph unicode="," horiz-adv-x="585" d="M53 -203q217 23 201 203h-127v328h332v-277q0 -197 -95.5 -288t-283.5 -95z" />
<glyph unicode="-" horiz-adv-x="835" d="M102 485v299h631v-299h-631z" />
<glyph unicode="." horiz-adv-x="585" d="M127 0v328h332v-328h-332z" />
<glyph unicode="/" horiz-adv-x="1085" d="M-57 -262l907 1896h264l-907 -1896h-264z" />
<glyph unicode="0" horiz-adv-x="1495" d="M111 714.5q0 317.5 178 530.5t460.5 213t458.5 -211t176 -528.5t-178 -530.5t-460.5 -213t-458.5 211t-176 528.5zM434 719q0 -201 87 -330t228.5 -129t226.5 128t85 326.5t-87 329t-228.5 130.5t-226.5 -127t-85 -328z" />
<glyph unicode="1" horiz-adv-x="864" d="M49 1321l412 123h215v-1444h-311v1124l-250 -61z" />
<glyph unicode="2" horiz-adv-x="1275" d="M100 0v250l478 391q141 117 194 187.5t53 156.5q0 88 -53 137t-139 49q-80 0 -144.5 -44t-148.5 -148l-221 178q113 154 232.5 225.5t301.5 71.5q227 0 360.5 -121t133.5 -323q0 -168 -83 -282t-294 -275l-233 -181h624v-272h-1061z" />
<glyph unicode="3" horiz-adv-x="1271" d="M78 223l217 207q154 -172 346 -172q90 0 146.5 48t56.5 128q0 88 -73 136t-208 48h-131l-49 201l342 344h-563v271h968v-238l-362 -346q385 -63 385 -404q0 -207 -140.5 -339t-375.5 -132q-350 0 -559 248z" />
<glyph unicode="4" horiz-adv-x="1411" d="M63 532l787 912h266v-879h193v-256h-193v-309h-301v309h-700zM434 565h381v447z" />
<glyph unicode="5" horiz-adv-x="1290" d="M88 190l191 228q172 -156 342 -156q113 0 176 52.5t63 148.5q0 92 -68.5 144t-185.5 52q-115 0 -239 -53l-183 121l41 707h881v-277h-610l-17 -248q98 25 189 25q225 0 363 -113.5t138 -347.5q0 -227 -148.5 -362.5t-395.5 -135.5q-311 0 -537 215z" />
<glyph unicode="6" horiz-adv-x="1355" d="M111 674q0 350 159.5 567t468.5 217q250 0 449 -158l-166 -243q-78 59 -142.5 86.5t-150.5 27.5q-127 0 -199.5 -91t-89.5 -240q139 92 297 92q221 0 362.5 -120t141.5 -339t-155.5 -358.5t-391.5 -139.5q-260 0 -413 154q-170 170 -170 545zM432 461q0 -96 67.5 -155.5 t182.5 -59.5t180.5 58.5t65.5 154.5q0 94 -67.5 152.5t-182.5 58.5t-180.5 -57.5t-65.5 -151.5z" />
<glyph unicode="7" horiz-adv-x="1267" d="M139 1161v273h1032v-238l-643 -1196h-356l641 1161h-674z" />
<glyph unicode="8" horiz-adv-x="1290" d="M92 395q0 129 57.5 212t174.5 136q-182 111 -183 316q0 168 140.5 281.5t363.5 113.5t363.5 -113.5t140.5 -281.5q0 -205 -182 -316q117 -61 174 -139t57 -201q0 -197 -154.5 -310t-398.5 -113q-242 0 -397.5 114.5t-155.5 300.5zM397 420q0 -78 66.5 -129t181.5 -51 t181.5 51t66.5 129q0 82 -68.5 130t-179 48t-179.5 -48t-69 -130zM440 1026q0 -78 56.5 -128t148.5 -50t148.5 49t56.5 127q0 72 -55.5 121t-149.5 49t-149.5 -49t-55.5 -119z" />
<glyph unicode="9" horiz-adv-x="1355" d="M115 954q0 219 152.5 361.5t394.5 142.5q141 0 236 -37t177 -118q170 -170 170 -543q0 -358 -163.5 -571.5t-463.5 -213.5q-266 0 -471 170l166 240q154 -123 314 -123q127 0 200.5 88t90.5 238q-115 -98 -291 -99q-236 0 -374 124t-138 341zM428 968.5 q0 -98.5 67.5 -157.5t182.5 -59t180.5 59.5t65.5 155.5q0 98 -68 159.5t-184 61.5q-115 0 -179.5 -60.5t-64.5 -159z" />
<glyph unicode=":" horiz-adv-x="606" d="M137 0v328h332v-328h-332zM137 770v328h332v-328h-332z" />
<glyph unicode=";" horiz-adv-x="606" d="M63 -203q217 23 201 203h-127v328h332v-277q0 -197 -95 -288t-284 -95zM137 770v328h332v-328h-332z" />
<glyph unicode="&#x3c;" horiz-adv-x="1310" d="M139 580v282l991 434v-288l-692 -285l692 -285v-293z" />
<glyph unicode="=" horiz-adv-x="1310" d="M170 313v283h971v-283h-971zM170 846v282h971v-282h-971z" />
<glyph unicode="&#x3e;" horiz-adv-x="1310" d="M180 145v289l692 285l-692 285v292l991 -434v-282z" />
<glyph unicode="?" horiz-adv-x="1114" d="M41 1231q201 221 502 221q225 0 360 -111.5t135 -314.5q0 -332 -403 -414l-23 -125h-209l-47 332l11 10q358 14 358 189q0 70 -49 108.5t-139 38.5q-166 0 -308 -141zM336 0v328h332v-328h-332z" />
<glyph unicode="@" horiz-adv-x="2007" d="M109 561q0 369 261 633t636 264q369 0 630.5 -244.5t261.5 -566.5q0 -246 -114.5 -380t-292.5 -134q-207 0 -313 123q-135 -123 -304 -123q-160 0 -267 108.5t-107 286.5q0 213 138 363.5t320 150.5q180 0 283 -139l23 109l241 -39l-96 -551q-6 -31 -6 -64q0 -57 40 -93 t109 -36q113 0 186.5 111t73.5 307q0 291 -234.5 510t-571.5 219q-344 0 -577.5 -237.5t-233.5 -577.5q0 -342 234.5 -576.5t592.5 -234.5q268 0 502 137l41 -65q-252 -154 -543 -154q-389 0 -651 261t-262 632zM754 543q0 -94 53 -146.5t139 -52.5q98 0 171 85t73 210 q0 86 -53.5 139t-137.5 53q-100 0 -172.5 -83.5t-72.5 -204.5z" />
<glyph unicode="A" d="M49 0l615 1444h290l615 -1444h-330l-131 322h-606l-131 -322h-322zM614 600h381l-190 465z" />
<glyph unicode="B" horiz-adv-x="1478" d="M172 0v1434h666q219 0 346 -100.5t127 -270.5v-4q0 -203 -189 -309q133 -51 201 -133t68 -220v-4q0 -193 -143.5 -293t-393.5 -100h-682zM479 276h375q223 0 223 156v4q0 156 -233 156h-365v-316zM479 854h291q227 0 227 152v4q0 72 -53 109.5t-153 37.5h-312v-303z" />
<glyph unicode="C" horiz-adv-x="1511" d="M109 713v4q0 311 210.5 526t536.5 215q190 0 323.5 -56t241.5 -165l-200 -231q-177 161 -365 161h-2q-178 0 -297 -130t-119 -316v-4q0 -188 118 -319.5t298 -131.5q115 0 199 41t178 127l201 -203q-119 -127 -255.5 -191.5t-332.5 -64.5q-315 0 -525 213t-210 525z" />
<glyph unicode="D" horiz-adv-x="1601" d="M172 0v1434h559q334 0 548 -204t214 -509v-4q0 -307 -214 -512t-548 -205h-559zM487 285h244q193 0 312.5 119t119.5 309v4q0 190 -119.5 311t-312.5 121h-244v-864z" />
<glyph unicode="E" horiz-adv-x="1372" d="M172 0v1434h1081v-281h-768v-291h676v-280h-676v-301h779v-281h-1092z" />
<glyph unicode="F" horiz-adv-x="1343" d="M172 0v1434h1092v-287h-777v-305h684v-287h-684v-555h-315z" />
<glyph unicode="G" horiz-adv-x="1605" d="M109 713v4q0 309 215 525t536 216q186 0 315.5 -48t247.5 -148l-198 -240q-90 76 -174 110.5t-201 34.5q-172 0 -292 -131t-120 -315v-4q0 -197 122 -326t312 -129q176 0 297 86v205h-317v272h623v-622q-268 -227 -613 -228q-332 0 -542.5 209t-210.5 529z" />
<glyph unicode="H" horiz-adv-x="1556" d="M172 0v1434h315v-568h582v568h315v-1434h-315v575h-582v-575h-315z" />
<glyph unicode="I" horiz-adv-x="688" d="M186 0v1434h316v-1434h-316z" />
<glyph unicode="J" horiz-adv-x="1155" d="M29 195l198 221q131 -143 262 -144q193 0 193 238v924h324v-938q0 -254 -136.5 -385t-371.5 -131q-289 0 -469 215z" />
<glyph unicode="K" horiz-adv-x="1495" d="M172 0v1434h315v-627l582 627h381l-584 -609l611 -825h-379l-445 610l-166 -172v-438h-315z" />
<glyph unicode="L" horiz-adv-x="1267" d="M172 0v1434h315v-1147h715v-287h-1030z" />
<glyph unicode="M" horiz-adv-x="1777" d="M172 0v1434h340l377 -607l377 607h340v-1434h-314v936l-403 -612h-8l-400 606v-930h-309z" />
<glyph unicode="N" d="M172 0v1434h291l672 -883v883h311v-1434h-268l-695 911v-911h-311z" />
<glyph unicode="O" horiz-adv-x="1740" d="M109 713v4q0 309 218 525t545.5 216t543.5 -214t216 -523v-4q0 -309 -218 -525.5t-545.5 -216.5t-543.5 214t-216 524zM438 717q0 -188 123 -319.5t311.5 -131.5t309.5 129.5t121 317.5v4q0 188 -123 319t-311.5 131t-309.5 -129t-121 -317v-4z" />
<glyph unicode="P" horiz-adv-x="1368" d="M172 0v1434h586q254 0 401.5 -136.5t147.5 -359.5v-4q0 -240 -164 -372t-416 -132h-240v-430h-315zM487 711h250q115 0 182.5 61.5t67.5 155.5v4q0 104 -67.5 160.5t-188.5 56.5h-244v-438z" />
<glyph unicode="Q" horiz-adv-x="1740" d="M109 713v4q0 309 218 525t545.5 216t543.5 -214t216 -523v-4q0 -227 -127 -412l148 -125l-201 -223l-158 141q-190 -123 -426 -123q-328 0 -543.5 214t-215.5 524zM438 717q0 -188 123 -319.5t311 -131.5q100 0 189 39l-234 199l201 225l236 -213q39 86 39 197v4 q0 188 -123 319t-311.5 131t-309.5 -129t-121 -317v-4z" />
<glyph unicode="R" horiz-adv-x="1480" d="M172 0v1434h655q254 0 397.5 -126t143.5 -347v-5q0 -330 -307 -444l350 -512h-369l-307 459h-248v-459h-315zM487 737h320q113 0 177.5 55.5t64.5 147.5v4q0 100 -65.5 152.5t-182.5 52.5h-314v-412z" />
<glyph unicode="S" horiz-adv-x="1310" d="M74 209l186 223q211 -174 428 -174q96 0 151.5 36t55.5 99v4q0 61 -57.5 99.5t-231.5 83.5q-123 31 -198.5 60.5t-144 78.5t-100.5 121.5t-32 177.5v4q0 195 140.5 313.5t361.5 118.5q305 0 532 -182l-164 -238q-203 141 -372 142q-88 0 -136.5 -35t-48.5 -90v-4 q0 -70 59.5 -105t250.5 -84q233 -61 343.5 -156.5t110.5 -273.5v-4q0 -209 -144 -326.5t-382 -117.5q-352 0 -608 229z" />
<glyph unicode="T" horiz-adv-x="1327" d="M70 1143v291h1187v-291h-436v-1143h-315v1143h-436z" />
<glyph unicode="U" horiz-adv-x="1548" d="M150 614v820h315v-811q0 -172 81 -263.5t228.5 -91.5t228 88t80.5 256v822h316v-809q0 -319 -167 -483.5t-462 -164.5q-293 0 -456.5 163t-163.5 474z" />
<glyph unicode="V" horiz-adv-x="1536" d="M49 1434h348l375 -1010l375 1010h340l-580 -1444h-278z" />
<glyph unicode="W" horiz-adv-x="2297" d="M61 1434h338l297 -971l322 975h270l322 -975l297 971h329l-489 -1444h-274l-324 938l-324 -938h-274z" />
<glyph unicode="X" horiz-adv-x="1499" d="M63 0l500 729l-479 705h369l301 -465l303 465h358l-479 -701l500 -733h-369l-322 492l-323 -492h-359z" />
<glyph unicode="Y" horiz-adv-x="1466" d="M25 1434h368l342 -576l348 576h359l-551 -863v-571h-316v565z" />
<glyph unicode="Z" horiz-adv-x="1449" d="M129 0v240l789 917h-764v277h1169v-240l-788 -918h788v-276h-1194z" />
<glyph unicode="[" horiz-adv-x="952" d="M170 -266v1700h661v-244h-362v-1213h362v-243h-661z" />
<glyph unicode="\" horiz-adv-x="1085" d="M-29 1634h265l907 -1896h-264z" />
<glyph unicode="]" horiz-adv-x="952" d="M121 -23h362v1213h-362v244h661v-1700h-661v243z" />
<glyph unicode="^" horiz-adv-x="1024" d="M102 1010l304 424h212l304 -424h-226l-186 239l-186 -239h-222z" />
<glyph unicode="_" horiz-adv-x="1228" d="M-4 -90h1237v-238h-1237v238z" />
<glyph unicode="`" horiz-adv-x="1024" d="M225 1464l269 117l231 -362h-238z" />
<glyph unicode="a" horiz-adv-x="1212" d="M74 315v4q0 174 119.5 262.5t322.5 88.5q137 0 268 -45v18q0 201 -235 201q-141 0 -303 -60l-78 238q201 88 426 88q489 0 489 -473v-637h-301v119q-125 -139 -331 -139q-162 0 -269.5 89t-107.5 246zM375 328q0 -61 47 -97t123 -36q109 0 176 54t67 138v55 q-88 41 -198 41q-100 0 -157.5 -38.5t-57.5 -112.5v-4z" />
<glyph unicode="b" horiz-adv-x="1382" d="M139 0v1495h312v-555q131 178 342 178q205 0 352 -152.5t147 -414.5v-4q0 -262 -146.5 -414.5t-352.5 -152.5q-205 0 -342 163v-143h-312zM446 547q0 -133 77 -218t189.5 -85t190.5 84t78 219v4q0 133 -78 218t-190.5 85t-189.5 -85t-77 -218v-4z" />
<glyph unicode="c" horiz-adv-x="1169" d="M86 543v4q0 238 164 404.5t412 166.5q274 0 438 -184l-191 -205q-115 121 -250 121q-115 0 -190.5 -88t-75.5 -211v-4q0 -129 77 -216t202 -87q129 0 252 116l182 -184q-90 -98 -192.5 -149.5t-256.5 -51.5q-246 0 -408.5 165t-162.5 403z" />
<glyph unicode="d" horiz-adv-x="1382" d="M90 547v4q0 262 146.5 414.5t353.5 152.5q205 0 342 -164v541h311v-1495h-311v158q-131 -178 -342 -178q-205 0 -352.5 152.5t-147.5 414.5zM401 547q0 -133 78 -218t190.5 -85t189.5 85t77 218v4q0 133 -77 218t-189.5 85t-190.5 -84t-78 -219v-4z" />
<glyph unicode="e" horiz-adv-x="1255" d="M86 543v4q0 240 153.5 405.5t389.5 165.5q260 0 397 -172t137 -424v-4q0 -20 -4 -78h-764q23 -104 92.5 -159.5t176.5 -55.5q145 0 266 113l178 -158q-166 -205 -449 -205q-250 0 -411.5 159t-161.5 409zM391 635h469q-14 106 -74.5 169.5t-156.5 63.5 q-94 0 -156.5 -62.5t-81.5 -170.5z" />
<glyph unicode="f" horiz-adv-x="782" d="M63 831v256h130v70q0 352 339 352q125 0 222 -30v-258q-71 26 -137 26h-5q-113 0 -112 -119v-43h252v-254h-248v-831h-311v831h-130z" />
<glyph unicode="g" horiz-adv-x="1382" d="M90 602v4q0 236 143.5 374t344.5 138q205 0 354 -164v144h311v-850q0 -305 -150.5 -442.5t-461.5 -137.5q-268 0 -486 115l107 233q178 -100 371 -100q313 0 313 299v53q-74 -90 -157 -134t-201 -44q-203 0 -345.5 138.5t-142.5 373.5zM401 602q0 -113 76 -183.5 t190.5 -70.5t191.5 71.5t77 182.5v4q0 111 -77 182.5t-191.5 71.5t-190.5 -71.5t-76 -182.5v-4z" />
<glyph unicode="h" horiz-adv-x="1275" d="M139 0v1495h312v-553q137 176 321 176q176 0 274.5 -108.5t98.5 -298.5v-711h-311v612q0 109 -49.5 166.5t-139.5 57.5t-142 -57.5t-52 -166.5v-612h-312z" />
<glyph unicode="i" horiz-adv-x="618" d="M145 1219v276h328v-276h-328zM154 0v1098h311v-1098h-311z" />
<glyph unicode="j" horiz-adv-x="618" d="M-23 -78q37 -6 66 -6q111 0 111 127v1055h311v-1080q0 -352 -352 -352q-70 0 -136 12v244zM145 1219v276h328v-276h-328z" />
<glyph unicode="k" horiz-adv-x="1212" d="M139 0v1495h312v-797l364 400h373l-418 -432l432 -666h-356l-287 449l-108 -115v-334h-312z" />
<glyph unicode="l" horiz-adv-x="618" d="M154 0v1495h311v-1495h-311z" />
<glyph unicode="m" horiz-adv-x="1945" d="M139 0v1098h312v-156q137 176 323 176q219 0 309 -174q150 174 361 174q176 0 273.5 -103.5t97.5 -299.5v-715h-312v612q0 223 -182 224q-88 0 -138 -57.5t-50 -166.5v-612h-312v612q0 223 -182 224q-88 0 -138 -57.5t-50 -166.5v-612h-312z" />
<glyph unicode="n" horiz-adv-x="1275" d="M139 0v1098h312v-156q137 176 321 176q176 0 274.5 -108.5t98.5 -298.5v-711h-311v612q0 109 -49.5 166.5t-139.5 57.5t-142 -57.5t-52 -166.5v-612h-312z" />
<glyph unicode="o" horiz-adv-x="1359" d="M86 543v4q0 240 171 405.5t425 165.5t423 -165t169 -402v-4q0 -240 -171 -406t-425 -166t-423 165t-169 403zM393 547q0 -125 81 -214t208 -89q129 0 207 86t78 213v4q0 125 -81 214t-208 89q-129 0 -207 -86t-78 -213v-4z" />
<glyph unicode="p" horiz-adv-x="1382" d="M139 -328v1426h312v-158q131 178 342 178q205 0 352 -152.5t147 -414.5v-4q0 -262 -146.5 -414.5t-352.5 -152.5q-205 0 -342 163v-471h-312zM446 547q0 -133 77 -218t189.5 -85t190.5 84t78 219v4q0 133 -78 218t-190.5 85t-189.5 -85t-77 -218v-4z" />
<glyph unicode="q" horiz-adv-x="1382" d="M90 547v4q0 262 146.5 414.5t353.5 152.5q205 0 342 -164v144h311v-1426h-311v486q-131 -178 -342 -178q-205 0 -352.5 152.5t-147.5 414.5zM401 547q0 -133 78 -218t190.5 -85t189.5 85t77 218v4q0 133 -77 218t-189.5 85t-190.5 -84t-78 -219v-4z" />
<glyph unicode="r" horiz-adv-x="856" d="M139 0v1098h312v-221q102 241 330 241h20v-325h-17q-160 0 -246.5 -97.5t-86.5 -289.5v-406h-312z" />
<glyph unicode="s" horiz-adv-x="1028" d="M53 145l133 205q180 -131 346 -131q131 0 132 82v4q0 10 -3.5 20.5t-11.5 18.5t-17 15.5t-24.5 14.5t-27 12t-32 12.5t-34.5 11.5l-38.5 11t-39.5 11q-70 20 -119 42t-101 58.5t-79.5 95t-27.5 134.5v4q0 162 114.5 255t286.5 93q221 0 410 -127l-119 -215 q-174 102 -297 102q-55 0 -85 -21.5t-30 -53.5v-4q0 -55 189 -119q23 -8 34 -12q72 -25 120 -46.5t102.5 -59.5t82 -93t27.5 -127v-4q0 -176 -115.5 -265t-304.5 -89q-260 0 -471 165z" />
<glyph unicode="t" horiz-adv-x="849" d="M59 831v267h131v280h312v-280h258v-267h-258v-469q0 -106 100 -106q82 0 154 39v-250q-106 -63 -246 -63q-154 0 -237 74.5t-83 254.5v520h-131z" />
<glyph unicode="u" horiz-adv-x="1275" d="M131 387v711h311v-613q0 -109 49.5 -166t139.5 -57t142 57.5t52 165.5v613h312v-1098h-312v156q-137 -176 -321 -176q-176 0 -274.5 108.5t-98.5 298.5z" />
<glyph unicode="v" horiz-adv-x="1228" d="M41 1098h330l245 -736l248 736h324l-432 -1106h-283z" />
<glyph unicode="w" horiz-adv-x="1763" d="M49 1098h316l176 -666l207 670h268l209 -672l180 668h309l-342 -1106h-280l-211 674l-215 -674h-279z" />
<glyph unicode="x" horiz-adv-x="1196" d="M47 0l385 557l-371 541h334l205 -320l207 320h326l-371 -535l387 -563h-334l-221 342l-221 -342h-326z" />
<glyph unicode="y" horiz-adv-x="1228" d="M41 1098h330l250 -748l239 748h324l-422 -1125q-63 -170 -143 -238.5t-218 -68.5q-147 0 -276 76l104 225q72 -43 133 -43q74 0 109 72z" />
<glyph unicode="z" horiz-adv-x="1153" d="M102 0v219l568 627h-549v252h936v-219l-570 -627h570v-252h-955z" />
<glyph unicode="{" horiz-adv-x="1003" d="M100 469v238h54q123 0 174 46t51 165q0 18 -3 72t-3 69q0 166 104.5 262t374.5 143l55 -207q-156 -45 -203 -95t-47 -148q0 -20 3.5 -74.5t3.5 -77.5q0 -205 -213 -274q213 -70 213 -275q0 -23 -3.5 -77t-3.5 -74q0 -98 47.5 -148.5t202.5 -95.5l-55 -207 q-270 47 -374.5 143.5t-104.5 262.5q0 14 3 68.5t3 72.5q0 119 -51.5 165t-173.5 46h-54z" />
<glyph unicode="|" horiz-adv-x="716" d="M236 -262v1896h245v-1896h-245z" />
<glyph unicode="}" horiz-adv-x="1003" d="M96 -82q156 45 203 95t47 149q0 20 -3 74.5t-3 76.5q0 205 213 275q-213 70 -213 274q0 23 3 77t3 75q0 98 -47 148t-203 95l56 207q270 -47 374.5 -143t104.5 -262q0 -14 -3 -68.5t-3 -72.5q0 -119 51 -165t174 -46h53v-238h-53q-123 0 -174 -46t-51 -165q0 -18 3 -72.5 t3 -68.5q0 -166 -104.5 -262.5t-374.5 -143.5z" />
<glyph unicode="~" horiz-adv-x="1044" d="M100 510q39 141 96.5 212t157.5 71q70 0 173.5 -40t134.5 -40q45 0 68.5 23.5t47.5 76.5l166 -51q-39 -141 -96 -212t-158 -71q-70 0 -173 40t-134 40q-45 0 -68.5 -23.5t-48.5 -76.5z" />
<glyph unicode="&#xa1;" horiz-adv-x="663" d="M150 0v41l96 905h172l96 -905v-41h-364zM166 1106v328h332v-328h-332z" />
<glyph unicode="&#xa2;" horiz-adv-x="1189" d="M96 725q0 240 163 406.5t411 166.5h12l29 148h213l-35 -180q121 -41 221 -152l-184 -199q-51 51 -101 76l-112 -565q113 14 221 115l176 -179q-180 -201 -438 -206l-33 -168h-213l39 200q-164 61 -266.5 207t-102.5 330zM397 729q0 -182 131 -266l111 567 q-106 -8 -174 -95t-68 -206z" />
<glyph unicode="&#xa3;" horiz-adv-x="1318" d="M123 0v207l156 51v289h-156v260h156v166q0 227 126.5 354t358.5 127q287 0 461 -235l-240 -193q-55 72 -104.5 103.5t-112.5 31.5q-78 0 -124 -52t-46 -144v-158h467v-260h-467v-275h623v-272h-1098z" />
<glyph unicode="&#xa4;" horiz-adv-x="1474" d="M100 444v207h154q-2 20 -2 64q0 51 2 76h-154v206h193q66 209 220.5 335t375.5 126q178 0 296 -67.5t208 -194.5l-238 -180q-61 82 -123.5 122t-148.5 40q-180 0 -260 -181h376v-206h-426q-2 -23 -2 -72q0 -45 2 -68h426v-207h-381q80 -188 277 -188q84 0 143.5 39 t132.5 129l226 -166q-98 -137 -217 -210t-285 -73q-229 0 -387 126t-219 343h-189z" />
<glyph unicode="&#xa5;" horiz-adv-x="1404" d="M29 1434h362l316 -531l317 531h352l-442 -676h297v-221h-377v-127h377v-222h-377v-188h-303v188h-377v222h377v127h-377v221h293z" />
<glyph unicode="&#xa7;" horiz-adv-x="1294" d="M113 705q0 174 182 241q-86 68 -86 189q0 147 110.5 233t309.5 86q299 0 477 -194l-168 -168q-147 135 -301 135q-135 0 -135 -76q0 -37 43 -60.5t182 -54.5q248 -55 351.5 -122.5t103.5 -184.5q0 -174 -183 -242q86 -68 86 -188q0 -147 -110.5 -233t-308.5 -86 q-299 0 -478 194l168 168q147 -135 301 -135q135 0 136 76q0 37 -43 60.5t-183 53.5q-248 55 -351 123t-103 185zM385 750q0 -41 48 -68t159 -53q147 -37 205 -37q53 0 82.5 24.5t29.5 67.5q0 41 -48 67.5t-159 53.5q-147 37 -204 37q-53 0 -83 -24.5t-30 -67.5z" />
<glyph unicode="&#xa8;" horiz-adv-x="1024" d="M143 1219v276h299v-276h-299zM582 1219v276h299v-276h-299z" />
<glyph unicode="&#xa9;" horiz-adv-x="1699" d="M109 715q0 305 217 524t526 219t524 -217t215 -522t-217 -524.5t-526 -219.5t-524 217.5t-215 522.5zM195 715q0 -274 187 -466t465.5 -192t468 193t189.5 469q0 274 -187.5 465.5t-466 191.5t-467.5 -192.5t-189 -468.5zM455 725q0 172 115.5 291t293.5 119 q186 0 312 -121l-113 -131q-98 88 -199 88q-96 0 -160.5 -71t-64.5 -173t63.5 -173t161.5 -71q100 0 203 92l115 -114q-131 -141 -324 -142q-172 0 -287.5 117t-115.5 289z" />
<glyph unicode="&#xaa;" horiz-adv-x="798" d="M100 567v135h570v-135h-570zM106 1004q0 96 66 145t178 49q74 0 148 -24v10q0 111 -131 110q-78 0 -166 -32l-43 129q109 49 235 49q268 0 269 -260v-351h-166v66q-68 -78 -183 -78q-90 0 -148.5 49t-58.5 138zM272 1012q0 -76 93 -76q59 0 97 29.5t38 76.5v31 q-55 23 -111 23q-117 0 -117 -84z" />
<glyph unicode="&#xab;" horiz-adv-x="1320" d="M84 541v16l344 459l238 -115l-267 -350l267 -350l-238 -119zM641 541v16l344 459l238 -115l-267 -350l267 -350l-238 -119z" />
<glyph unicode="&#xad;" horiz-adv-x="835" d="M102 485v299h631v-299h-631z" />
<glyph unicode="&#xae;" horiz-adv-x="1699" d="M109 715q0 305 217 524t526 219t524 -217t215 -522t-217 -524.5t-526 -219.5t-524 217.5t-215 522.5zM195 715q0 -274 187 -466t465.5 -192t468 193t189.5 469q0 274 -187.5 465.5t-466 191.5t-467.5 -192.5t-189 -468.5zM545 344v789h350q143 0 226 -69t83 -192 q0 -184 -170 -245l193 -283h-203l-168 254h-137v-254h-174zM719 748h174q66 0 100.5 31.5t34.5 82.5q0 117 -139 117h-170v-231z" />
<glyph unicode="&#xaf;" horiz-adv-x="1024" d="M143 1229v215h738v-215h-738z" />
<glyph unicode="&#xb0;" horiz-adv-x="983" d="M137 1100q0 139 106.5 242.5t248 103.5t248 -103.5t106.5 -242.5t-106.5 -242.5t-248 -103.5t-248 103.5t-106.5 242.5zM303 1100q0 -78 54.5 -135.5t134 -57.5t134 57.5t54.5 135.5t-54.5 135t-134 57t-134 -57t-54.5 -135z" />
<glyph unicode="&#xb1;" horiz-adv-x="1257" d="M76 219l211 205q160 -166 360 -166q100 0 155.5 45t55.5 125q0 164 -270 164h-158v262h166q106 0 164.5 46t58.5 122q0 70 -55 112t-152 42q-84 0 -151.5 -42t-141.5 -124l-217 184q106 133 223 198.5t291 65.5q231 0 371.5 -107.5t140.5 -279.5q0 -229 -188 -334 q109 -47 168 -120.5t59 -192.5q0 -199 -139 -324t-385 -125q-344 0 -567 244z" />
<glyph unicode="&#xb4;" horiz-adv-x="1024" d="M299 1219l231 362l269 -117l-262 -245h-238z" />
<glyph unicode="&#xb5;" horiz-adv-x="1740" d="M109 714.5q0 311.5 218 527.5t545.5 216t543.5 -214t216 -525q0 -319 -233 -537l364 -368v-21h-463l-215 211q-104 -29 -217 -29q-328 0 -543.5 214t-215.5 525.5zM438 718.5q0 -188.5 123 -320.5t311.5 -132t309.5 130t121 318.5t-123 320.5t-311.5 132t-309.5 -130 t-121 -318.5z" />
<glyph unicode="&#xb6;" horiz-adv-x="1208" d="M72 950q0 225 154.5 354.5t410.5 129.5h399v-1434h-315v471h-49q-268 0 -434 124t-166 355z" />
<glyph unicode="&#xb7;" horiz-adv-x="585" d="M127 471v328h332v-328h-332z" />
<glyph unicode="&#xb8;" horiz-adv-x="1024" d="M242 -246l182 266h229l-151 -374z" />
<glyph unicode="&#xba;" horiz-adv-x="798" d="M84 1128.5q0 133.5 91 224.5t226.5 91t224.5 -90t89 -223.5t-91.5 -224.5t-226.5 -91t-224 90t-89 223.5zM104 567v135h590v-135h-590zM252 1130.5q0 -69.5 42 -118.5t107.5 -49t105.5 48t40 117.5t-42 118.5t-107.5 49t-105.5 -48t-40 -117.5z" />
<glyph unicode="&#xbb;" horiz-adv-x="1320" d="M98 197l267 350l-267 350l238 119l344 -459v-16l-344 -459zM655 197l267 350l-267 350l238 119l344 -459v-16l-344 -459z" />
<glyph unicode="&#xbf;" horiz-adv-x="1114" d="M76 408q0 332 403 413l23 125h209l47 -332l-10 -10q-358 -14 -359 -188q0 -70 49 -109t140 -39q166 0 307 142l188 -207q-201 -221 -502 -221q-225 0 -360 111.5t-135 314.5zM446 1106v328h332v-328h-332z" />
<glyph unicode="&#xc0;" d="M49 0l615 1444h290l615 -1444h-330l-131 322h-606l-131 -322h-322zM440 1792l269 117l231 -363h-238zM614 600h381l-190 465z" />
<glyph unicode="&#xc1;" d="M49 0l615 1444h290l615 -1444h-330l-131 322h-606l-131 -322h-322zM614 600h381l-190 465zM678 1546l231 363l269 -117l-263 -246h-237z" />
<glyph unicode="&#xc2;" d="M49 0l615 1444h290l615 -1444h-330l-131 322h-606l-131 -322h-322zM410 1546l252 322h294l252 -322h-239l-162 135l-162 -135h-235zM614 600h381l-190 465z" />
<glyph unicode="&#xc3;" d="M49 0l615 1444h290l615 -1444h-330l-131 322h-606l-131 -322h-322zM387 1577q39 141 96.5 212t157.5 71q70 0 173.5 -40t133.5 -40q45 0 68.5 23.5t48.5 76.5l166 -51q-39 -141 -96.5 -212t-157.5 -71q-70 0 -173.5 40t-133.5 40q-45 0 -68.5 -23.5t-48.5 -76.5zM614 600 h381l-190 465z" />
<glyph unicode="&#xc4;" d="M49 0l615 1444h290l615 -1444h-330l-131 322h-606l-131 -322h-322zM440 1546v277h299v-277h-299zM614 600h381l-190 465zM879 1546v277h299v-277h-299z" />
<glyph unicode="&#xc5;" d="M49 0l598 1407q-86 76 -86 180q0 98 75 169t173 71t173 -70.5t75 -169.5q0 -104 -86 -180l598 -1407h-330l-131 322h-606l-131 -322h-322zM614 600h381l-190 465zM682 1587q0 -51 38 -89t89 -38t89 38t38 89t-38 89t-89 38t-89 -38t-38 -89z" />
<glyph unicode="&#xc6;" horiz-adv-x="2140" d="M18 0l773 1434h1230v-281h-716v-291h624v-280h-624v-301h727v-281h-1041v322h-481l-170 -322h-322zM657 600h334v561h-37z" />
<glyph unicode="&#xc7;" horiz-adv-x="1511" d="M109 715q0 311 210.5 527t536.5 216q190 0 323.5 -56t241.5 -165l-200 -231q-178 162 -367 161q-178 0 -297 -130t-119 -318.5t118 -320.5t298 -132q115 0 199 41t178 127l201 -203q-111 -119 -236 -182t-299 -72l-133 -331l-260 108l164 242q-248 57 -403.5 256 t-155.5 463z" />
<glyph unicode="&#xc8;" horiz-adv-x="1372" d="M172 0v1434h1081v-281h-768v-291h676v-280h-676v-301h779v-281h-1092zM387 1792l268 117l232 -363h-238z" />
<glyph unicode="&#xc9;" horiz-adv-x="1372" d="M172 0v1434h1081v-281h-768v-291h676v-280h-676v-301h779v-281h-1092zM541 1546l231 363l268 -117l-262 -246h-237z" />
<glyph unicode="&#xca;" horiz-adv-x="1372" d="M172 0v1434h1081v-281h-768v-291h676v-280h-676v-301h779v-281h-1092zM309 1546l252 322h295l252 -322h-240l-161 135l-162 -135h-236z" />
<glyph unicode="&#xcb;" horiz-adv-x="1372" d="M172 0v1434h1081v-281h-768v-291h676v-280h-676v-301h779v-281h-1092zM340 1546v277h299v-277h-299zM778 1546v277h299v-277h-299z" />
<glyph unicode="&#xcc;" horiz-adv-x="688" d="M-25 1792l269 117l231 -363h-237zM186 0v1434h316v-1434h-316z" />
<glyph unicode="&#xcd;" horiz-adv-x="688" d="M186 0v1434h316v-1434h-316zM213 1546l231 363l269 -117l-262 -246h-238z" />
<glyph unicode="&#xce;" horiz-adv-x="688" d="M-55 1546l252 322h295l251 -322h-239l-162 135l-162 -135h-235zM186 0v1434h316v-1434h-316z" />
<glyph unicode="&#xcf;" horiz-adv-x="688" d="M186 0v1434h316v-1434h-316zM186 1546v277h299v-277h-299zM625 1546v277h299v-277h-299z" />
<glyph unicode="&#xd0;" horiz-adv-x="1662" d="M80 582v278h153v574h560q334 0 547.5 -204t213.5 -511t-214 -513t-547 -206h-560v582h-153zM545 285h248q193 0 312.5 118.5t119.5 311t-120 313.5t-312 121h-248v-289h311v-278h-311v-297z" />
<glyph unicode="&#xd1;" d="M172 0v1434h291l672 -883v883h311v-1434h-268l-695 911v-911h-311zM387 1577q39 141 96.5 212t157.5 71q70 0 173.5 -40t133.5 -40q45 0 68.5 23.5t48.5 76.5l166 -51q-39 -141 -96.5 -212t-157.5 -71q-70 0 -173.5 40t-133.5 40q-45 0 -68.5 -23.5t-48.5 -76.5z" />
<glyph unicode="&#xd2;" horiz-adv-x="1740" d="M109 713v4q0 309 218 525t545.5 216t543.5 -214t216 -523v-4q0 -309 -218 -525.5t-545.5 -216.5t-543.5 214t-216 524zM438 717q0 -188 123 -319.5t311.5 -131.5t309.5 129.5t121 317.5v4q0 188 -123 319t-311.5 131t-309.5 -129t-121 -317v-4zM481 1792l269 117 l231 -363h-238z" />
<glyph unicode="&#xd3;" horiz-adv-x="1740" d="M109 713v4q0 309 218 525t545.5 216t543.5 -214t216 -523v-4q0 -309 -218 -525.5t-545.5 -216.5t-543.5 214t-216 524zM438 717q0 -188 123 -319.5t311.5 -131.5t309.5 129.5t121 317.5v4q0 188 -123 319t-311.5 131t-309.5 -129t-121 -317v-4zM760 1546l231 363 l269 -117l-263 -246h-237z" />
<glyph unicode="&#xd4;" horiz-adv-x="1740" d="M109 713v4q0 309 218 525t545.5 216t543.5 -214t216 -523v-4q0 -309 -218 -525.5t-545.5 -216.5t-543.5 214t-216 524zM438 717q0 -188 123 -319.5t311.5 -131.5t309.5 129.5t121 317.5v4q0 188 -123 319t-311.5 131t-309.5 -129t-121 -317v-4zM471 1546l252 322h295 l252 -322h-240l-162 135l-161 -135h-236z" />
<glyph unicode="&#xd5;" horiz-adv-x="1740" d="M109 713v4q0 309 218 525t545.5 216t543.5 -214t216 -523v-4q0 -309 -218 -525.5t-545.5 -216.5t-543.5 214t-216 524zM438 717q0 -188 123 -319.5t311.5 -131.5t309.5 129.5t121 317.5v4q0 188 -123 319t-311.5 131t-309.5 -129t-121 -317v-4zM449 1577q39 141 96 212 t157 71q70 0 173.5 -40t134.5 -40q45 0 68.5 23.5t47.5 76.5l166 -51q-39 -141 -96 -212t-158 -71q-70 0 -173 40t-134 40q-45 0 -68.5 -23.5t-48.5 -76.5z" />
<glyph unicode="&#xd6;" horiz-adv-x="1740" d="M109 713v4q0 309 218 525t545.5 216t543.5 -214t216 -523v-4q0 -309 -218 -525.5t-545.5 -216.5t-543.5 214t-216 524zM438 717q0 -188 123 -319.5t311.5 -131.5t309.5 129.5t121 317.5v4q0 188 -123 319t-311.5 131t-309.5 -129t-121 -317v-4zM502 1546v277h299v-277 h-299zM940 1546v277h299v-277h-299z" />
<glyph unicode="&#xd8;" horiz-adv-x="1740" d="M92 -10l201 233q-184 203 -184 492q0 311 218 527t545 216q219 0 396 -102l80 88h301l-201 -234q184 -202 184 -491q0 -311 -218 -527.5t-546 -216.5q-219 0 -395 103l-80 -88h-301zM432 719q0 -139 72 -252l567 657q-94 49 -203 50q-188 0 -312 -134.5t-124 -320.5z M670 309q94 -49 202 -49q188 0 312.5 134.5t124.5 320.5q0 139 -72 252z" />
<glyph unicode="&#xd9;" horiz-adv-x="1548" d="M150 614v820h315v-811q0 -172 81 -263.5t228.5 -91.5t228 88t80.5 256v822h316v-809q0 -319 -167 -483.5t-462 -164.5q-293 0 -456.5 163t-163.5 474zM416 1782l268 116l231 -362h-237z" />
<glyph unicode="&#xda;" horiz-adv-x="1548" d="M150 614v820h315v-811q0 -172 81 -263.5t228.5 -91.5t228 88t80.5 256v822h316v-809q0 -319 -167 -483.5t-462 -164.5q-293 0 -456.5 163t-163.5 474zM633 1536l231 362l269 -116l-263 -246h-237z" />
<glyph unicode="&#xdb;" horiz-adv-x="1548" d="M150 614v820h315v-811q0 -172 81 -263.5t228.5 -91.5t228 88t80.5 256v822h316v-809q0 -319 -167 -483.5t-462 -164.5q-293 0 -456.5 163t-163.5 474zM375 1546l252 322h295l252 -322h-240l-162 135l-162 -135h-235z" />
<glyph unicode="&#xdc;" horiz-adv-x="1548" d="M150 614v820h315v-811q0 -172 81 -263.5t228.5 -91.5t228 88t80.5 256v822h316v-809q0 -319 -167 -483.5t-462 -164.5q-293 0 -456.5 163t-163.5 474zM406 1546v277h299v-277h-299zM844 1546v277h299v-277h-299z" />
<glyph unicode="&#xdd;" horiz-adv-x="1466" d="M25 1434h368l342 -576l348 576h359l-551 -863v-571h-316v565zM612 1536l232 362l268 -116l-262 -246h-238z" />
<glyph unicode="&#xde;" horiz-adv-x="1378" d="M172 0v1434h315v-209h271q254 0 401.5 -136.5t147.5 -361.5q0 -242 -164 -374t-416 -132h-240v-221h-315zM487 502h250q117 0 183.5 60.5t66.5 158.5q0 106 -67.5 162.5t-188.5 56.5h-244v-438z" />
<glyph unicode="&#xdf;" horiz-adv-x="1269" d="M139 0v1030q0 225 135.5 352t368.5 127q213 0 335 -112.5t122 -286.5q0 -123 -49.5 -198.5t-137.5 -137.5q268 -117 269 -364q0 -205 -154 -314.5t-416 -99.5v233q262 12 262 191q0 82 -71.5 133t-190.5 68v204q180 115 181 256q0 78 -44 122t-120 44q-80 0 -130 -56 t-50 -149v-1042h-310z" />
<glyph unicode="&#xe0;" horiz-adv-x="1212" d="M74 315v4q0 174 119.5 262.5t322.5 88.5q137 0 268 -45v18q0 201 -235 201q-141 0 -303 -60l-78 238q201 88 426 88q489 0 489 -473v-637h-301v119q-125 -139 -331 -139q-162 0 -269.5 89t-107.5 246zM258 1464l268 117l232 -362h-238zM375 328q0 -61 47 -97t123 -36 q109 0 176 54t67 138v55q-88 41 -198 41q-100 0 -157.5 -38.5t-57.5 -112.5v-4z" />
<glyph unicode="&#xe1;" horiz-adv-x="1212" d="M74 315v4q0 174 119.5 262.5t322.5 88.5q137 0 268 -45v18q0 201 -235 201q-141 0 -303 -60l-78 238q201 88 426 88q489 0 489 -473v-637h-301v119q-125 -139 -331 -139q-162 0 -269.5 89t-107.5 246zM375 328q0 -61 47 -97t123 -36q109 0 176 54t67 138v55 q-88 41 -198 41q-100 0 -157.5 -38.5t-57.5 -112.5v-4zM465 1219l231 362l269 -117l-263 -245h-237z" />
<glyph unicode="&#xe2;" horiz-adv-x="1212" d="M74 315v4q0 174 119.5 262.5t322.5 88.5q137 0 268 -45v18q0 201 -235 201q-141 0 -303 -60l-78 238q201 88 426 88q489 0 489 -473v-637h-301v119q-125 -139 -331 -139q-162 0 -269.5 89t-107.5 246zM203 1219l252 321h295l251 -321h-239l-162 135l-162 -135h-235z M375 328q0 -61 47 -97t123 -36q109 0 176 54t67 138v55q-88 41 -198 41q-100 0 -157.5 -38.5t-57.5 -112.5v-4z" />
<glyph unicode="&#xe3;" horiz-adv-x="1212" d="M74 315v4q0 174 119.5 262.5t322.5 88.5q137 0 268 -45v18q0 201 -235 201q-141 0 -303 -60l-78 238q201 88 426 88q489 0 489 -473v-637h-301v119q-125 -139 -331 -139q-162 0 -269.5 89t-107.5 246zM184 1249q39 141 96.5 212t157.5 71q70 0 173.5 -40t133.5 -40 q45 0 69 23.5t48 76.5l166 -51q-39 -141 -96.5 -211.5t-157.5 -70.5q-70 0 -173 39.5t-134 39.5q-45 0 -68.5 -23.5t-48.5 -76.5zM375 328q0 -61 47 -97t123 -36q109 0 176 54t67 138v55q-88 41 -198 41q-100 0 -157.5 -38.5t-57.5 -112.5v-4z" />
<glyph unicode="&#xe4;" horiz-adv-x="1212" d="M74 315v4q0 174 119.5 262.5t322.5 88.5q137 0 268 -45v18q0 201 -235 201q-141 0 -303 -60l-78 238q201 88 426 88q489 0 489 -473v-637h-301v119q-125 -139 -331 -139q-162 0 -269.5 89t-107.5 246zM233 1219v276h299v-276h-299zM375 328q0 -61 47 -97t123 -36 q109 0 176 54t67 138v55q-88 41 -198 41q-100 0 -157.5 -38.5t-57.5 -112.5v-4zM672 1219v276h299v-276h-299z" />
<glyph unicode="&#xe5;" horiz-adv-x="1212" d="M74 315v4q0 174 119.5 262.5t322.5 88.5q137 0 268 -45v18q0 201 -235 201q-141 0 -303 -60l-78 238q201 88 426 88q489 0 489 -473v-637h-301v119q-125 -139 -331 -139q-162 0 -269.5 89t-107.5 246zM354 1454q0 98 75 169t173 71t173 -71t75 -169t-75 -169t-173 -71 t-173 71t-75 169zM375 328q0 -61 47 -97t123 -36q109 0 176 54t67 138v55q-88 41 -198 41q-100 0 -157.5 -38.5t-57.5 -112.5v-4zM475 1454q0 -53 37 -90t90 -37t90 37t37 90t-37 90t-90 37t-90 -37t-37 -90z" />
<glyph unicode="&#xe6;" horiz-adv-x="1947" d="M74 322q0 172 119.5 260t322.5 88q137 0 268 -45v18q0 201 -235 201q-141 0 -303 -60l-78 238q201 88 426 88q258 0 373 -139q143 147 362 147q254 0 390 -173t136 -425q0 -23 -4 -80h-764q49 -215 269 -215q145 0 266 113l178 -158q-166 -205 -448 -205q-256 0 -418 166 q-219 -162 -447 -161q-186 0 -299.5 91t-113.5 251zM375 334q0 -63 47 -99t123 -36q145 0 280 104q-31 71 -39 141q-92 39 -196 39q-215 0 -215 -149zM1083 635h469q-14 106 -74.5 169.5t-156.5 63.5q-94 0 -157 -62t-81 -171z" />
<glyph unicode="&#xe7;" horiz-adv-x="1169" d="M86 545q0 240 164 406.5t412 166.5q274 0 438 -184l-191 -205q-115 121 -250 121q-115 0 -190.5 -88t-75.5 -213q0 -131 77 -218t202 -87q129 0 252 116l182 -184q-170 -184 -397 -199l-134 -331l-260 108l168 246q-178 53 -287.5 202.5t-109.5 342.5z" />
<glyph unicode="&#xe8;" horiz-adv-x="1255" d="M86 543v4q0 240 153.5 405.5t389.5 165.5q260 0 397 -172t137 -424v-4q0 -20 -4 -78h-764q23 -104 92.5 -159.5t176.5 -55.5q145 0 266 113l178 -158q-166 -205 -449 -205q-250 0 -411.5 159t-161.5 409zM250 1464l268 117l232 -362h-238zM391 635h469 q-14 106 -74.5 169.5t-156.5 63.5q-94 0 -156.5 -62.5t-81.5 -170.5z" />
<glyph unicode="&#xe9;" horiz-adv-x="1255" d="M86 543v4q0 240 153.5 405.5t389.5 165.5q260 0 397 -172t137 -424v-4q0 -20 -4 -78h-764q23 -104 92.5 -159.5t176.5 -55.5q145 0 266 113l178 -158q-166 -205 -449 -205q-250 0 -411.5 159t-161.5 409zM391 635h469q-14 106 -74.5 169.5t-156.5 63.5 q-94 0 -156.5 -62.5t-81.5 -170.5zM504 1219l231 362l269 -117l-263 -245h-237z" />
<glyph unicode="&#xea;" horiz-adv-x="1255" d="M86 543v4q0 240 153.5 405.5t389.5 165.5q260 0 397 -172t137 -424v-4q0 -20 -4 -78h-764q23 -104 92.5 -159.5t176.5 -55.5q145 0 266 113l178 -158q-166 -205 -449 -205q-250 0 -411.5 159t-161.5 409zM227 1219l252 321h295l252 -321h-240l-161 135l-162 -135h-236z M391 635h469q-14 106 -74.5 169.5t-156.5 63.5q-94 0 -156.5 -62.5t-81.5 -170.5z" />
<glyph unicode="&#xeb;" horiz-adv-x="1255" d="M86 543v4q0 240 153.5 405.5t389.5 165.5q260 0 397 -172t137 -424v-4q0 -20 -4 -78h-764q23 -104 92.5 -159.5t176.5 -55.5q145 0 266 113l178 -158q-166 -205 -449 -205q-250 0 -411.5 159t-161.5 409zM258 1219v276h299v-276h-299zM391 635h469q-14 106 -74.5 169.5 t-156.5 63.5q-94 0 -156.5 -62.5t-81.5 -170.5zM696 1219v276h299v-276h-299z" />
<glyph unicode="&#xec;" horiz-adv-x="618" d="M-55 1464l268 117l231 -362h-237zM154 0v1098h311v-1098h-311z" />
<glyph unicode="&#xed;" horiz-adv-x="618" d="M154 0v1098h311v-1098h-311zM174 1219l232 362l268 -117l-262 -245h-238z" />
<glyph unicode="&#xee;" horiz-adv-x="618" d="M154 0v1098h311v-1098h-311zM154 1219l252 321h294l252 -321h-239l-162 135l-162 -135h-235z" />
<glyph unicode="&#xef;" horiz-adv-x="618" d="M-59 1219v276h299v-276h-299zM154 0v1098h311v-1098h-311zM379 1219v276h299v-276h-299z" />
<glyph unicode="&#xf0;" horiz-adv-x="1327" d="M86 514q0 213 131 347t338 134q129 0 252 -65l-178 237l-234 -96l-114 154l235 94l-131 176h350l47 -68l205 84l113 -153l-209 -84l166 -236q96 -137 138 -252.5t42 -246.5q0 -238 -157.5 -401t-426.5 -163q-244 0 -405.5 156t-161.5 383zM389 508q0 -115 77 -192.5 t198 -77.5q123 0 196.5 76.5t73.5 193.5q0 113 -76 189.5t-196 76.5q-123 0 -198 -75.5t-75 -190.5z" />
<glyph unicode="&#xf1;" horiz-adv-x="1275" d="M139 0v1098h312v-156q137 176 321 176q176 0 274.5 -108.5t98.5 -298.5v-711h-311v612q0 109 -49.5 166.5t-139.5 57.5t-142 -57.5t-52 -166.5v-612h-312zM225 1249q39 141 96.5 212t157.5 71q70 0 173.5 -40t133.5 -40q45 0 69 23.5t48 76.5l166 -51 q-39 -141 -96.5 -211.5t-157.5 -70.5q-70 0 -173 39.5t-134 39.5q-45 0 -68.5 -23.5t-48.5 -76.5z" />
<glyph unicode="&#xf2;" horiz-adv-x="1359" d="M86 543v4q0 240 171 405.5t425 165.5t423 -165t169 -402v-4q0 -240 -171 -406t-425 -166t-423 165t-169 403zM299 1464l268 117l232 -362h-238zM393 547q0 -125 81 -214t208 -89q129 0 207 86t78 213v4q0 125 -81 214t-208 89q-129 0 -207 -86t-78 -213v-4z" />
<glyph unicode="&#xf3;" horiz-adv-x="1359" d="M86 543v4q0 240 171 405.5t425 165.5t423 -165t169 -402v-4q0 -240 -171 -406t-425 -166t-423 165t-169 403zM393 547q0 -125 81 -214t208 -89q129 0 207 86t78 213v4q0 125 -81 214t-208 89q-129 0 -207 -86t-78 -213v-4zM561 1219l232 362l268 -117l-262 -245h-238z " />
<glyph unicode="&#xf4;" horiz-adv-x="1359" d="M86 543v4q0 240 171 405.5t425 165.5t423 -165t169 -402v-4q0 -240 -171 -406t-425 -166t-423 165t-169 403zM281 1219l251 321h295l252 -321h-239l-162 135l-162 -135h-235zM393 547q0 -125 81 -214t208 -89q129 0 207 86t78 213v4q0 125 -81 214t-208 89 q-129 0 -207 -86t-78 -213v-4z" />
<glyph unicode="&#xf5;" horiz-adv-x="1359" d="M86 543v4q0 240 171 405.5t425 165.5t423 -165t169 -402v-4q0 -240 -171 -406t-425 -166t-423 165t-169 403zM258 1249q39 141 96.5 212t157.5 71q70 0 173 -40t134 -40q45 0 68.5 23.5t48.5 76.5l166 -51q-39 -141 -96.5 -211.5t-157.5 -70.5q-70 0 -173.5 39.5 t-133.5 39.5q-45 0 -68.5 -23.5t-48.5 -76.5zM393 547q0 -125 81 -214t208 -89q129 0 207 86t78 213v4q0 125 -81 214t-208 89q-129 0 -207 -86t-78 -213v-4z" />
<glyph unicode="&#xf6;" horiz-adv-x="1359" d="M86 543v4q0 240 171 405.5t425 165.5t423 -165t169 -402v-4q0 -240 -171 -406t-425 -166t-423 165t-169 403zM311 1219v276h299v-276h-299zM393 547q0 -125 81 -214t208 -89q129 0 207 86t78 213v4q0 125 -81 214t-208 89q-129 0 -207 -86t-78 -213v-4zM750 1219v276h299 v-276h-299z" />
<glyph unicode="&#xf8;" horiz-adv-x="1359" d="M55 -10l164 188q-133 156 -133 367q0 240 171 406.5t425 166.5q160 0 293 -71l57 61h273l-166 -190q135 -158 135 -369q0 -240 -171 -407t-425 -167q-158 0 -295 72l-55 -57h-273zM385 549q0 -76 33 -146l377 431q-51 25 -117 24q-131 0 -212 -89t-81 -220zM567 258 q55 -23 115 -22q131 0 212 89t81 220q0 76 -33 145z" />
<glyph unicode="&#xf9;" horiz-adv-x="1275" d="M131 387v711h311v-613q0 -109 49.5 -166t139.5 -57t142 57.5t52 165.5v613h312v-1098h-312v156q-137 -176 -321 -176q-176 0 -274.5 108.5t-98.5 298.5zM289 1464l268 117l231 -362h-237z" />
<glyph unicode="&#xfa;" horiz-adv-x="1275" d="M131 387v711h311v-613q0 -109 49.5 -166t139.5 -57t142 57.5t52 165.5v613h312v-1098h-312v156q-137 -176 -321 -176q-176 0 -274.5 108.5t-98.5 298.5zM485 1219l232 362l268 -117l-262 -245h-238z" />
<glyph unicode="&#xfb;" horiz-adv-x="1275" d="M131 387v711h311v-613q0 -109 49.5 -166t139.5 -57t142 57.5t52 165.5v613h312v-1098h-312v156q-137 -176 -321 -176q-176 0 -274.5 108.5t-98.5 298.5zM238 1219l251 321h295l252 -321h-239l-162 135l-162 -135h-235z" />
<glyph unicode="&#xfc;" horiz-adv-x="1275" d="M131 387v711h311v-613q0 -109 49.5 -166t139.5 -57t142 57.5t52 165.5v613h312v-1098h-312v156q-137 -176 -321 -176q-176 0 -274.5 108.5t-98.5 298.5zM268 1219v276h299v-276h-299zM707 1219v276h299v-276h-299z" />
<glyph unicode="&#xfd;" horiz-adv-x="1228" d="M41 1098h330l250 -748l239 748h324l-422 -1125q-63 -170 -143 -238.5t-218 -68.5q-147 0 -276 76l104 225q72 -43 133 -43q74 0 109 72zM469 1219l231 362l269 -117l-262 -245h-238z" />
<glyph unicode="&#xfe;" horiz-adv-x="1382" d="M139 -328v1823h312v-555q131 178 342 178q205 0 352 -152.5t147 -416.5t-146.5 -416.5t-352.5 -152.5q-205 0 -342 163v-471h-312zM446 549q0 -137 77 -221t189.5 -84t190.5 85t78 220t-78 220t-190.5 85t-189.5 -84t-77 -221z" />
<glyph unicode="&#xff;" horiz-adv-x="1228" d="M41 1098h330l250 -748l239 748h324l-422 -1125q-63 -170 -143 -238.5t-218 -68.5q-147 0 -276 76l104 225q72 -43 133 -43q74 0 109 72zM246 1219v276h299v-276h-299zM684 1219v276h299v-276h-299z" />
<glyph unicode="&#x152;" horiz-adv-x="2201" d="M109 715q0 307 214 513t547 206h1213v-281h-717v-291h625v-280h-625v-301h727v-281h-1223q-334 0 -547.5 204t-213.5 511zM438 718.5q0 -192.5 120 -313t312 -120.5h183v864h-183q-193 0 -312.5 -119t-119.5 -311.5z" />
<glyph unicode="&#x153;" horiz-adv-x="2115" d="M86 544.5q0 237.5 171 405.5t415 168q262 0 424 -192q150 193 401 192q254 0 390 -173t136 -425q0 -23 -4 -80h-764q49 -215 269 -215q145 0 266 113l178 -158q-166 -205 -448 -205q-278 0 -430 195q-164 -195 -431 -195q-236 0 -404.5 166t-168.5 403.5zM393 549 q0 -127 78 -216t201 -89q125 0 199.5 87t74.5 214t-77.5 216t-200.5 89q-125 0 -200 -87t-75 -214zM1251 635h469q-14 106 -74.5 169.5t-156.5 63.5q-94 0 -157 -62t-81 -171z" />
<glyph unicode="&#x178;" horiz-adv-x="1466" d="M25 1434h368l342 -576l348 576h359l-551 -863v-571h-316v565zM365 1546v277h299v-277h-299zM803 1546v277h299v-277h-299z" />
<glyph unicode="&#x2c6;" horiz-adv-x="1024" d="M113 1219l252 321h294l252 -321h-239l-162 135l-162 -135h-235z" />
<glyph unicode="&#x2dc;" horiz-adv-x="1024" d="M90 1249q39 141 96.5 212t157.5 71q70 0 173.5 -40t133.5 -40q45 0 68.5 23.5t48.5 76.5l166 -51q-39 -141 -96.5 -211.5t-157.5 -70.5q-70 0 -173.5 39.5t-133.5 39.5q-45 0 -68.5 -23.5t-48.5 -76.5z" />
<glyph unicode="&#x2000;" horiz-adv-x="954" />
<glyph unicode="&#x2001;" horiz-adv-x="1909" />
<glyph unicode="&#x2002;" horiz-adv-x="954" />
<glyph unicode="&#x2003;" horiz-adv-x="1909" />
<glyph unicode="&#x2004;" horiz-adv-x="636" />
<glyph unicode="&#x2005;" horiz-adv-x="477" />
<glyph unicode="&#x2006;" horiz-adv-x="318" />
<glyph unicode="&#x2007;" horiz-adv-x="318" />
<glyph unicode="&#x2008;" horiz-adv-x="238" />
<glyph unicode="&#x2009;" horiz-adv-x="381" />
<glyph unicode="&#x200a;" horiz-adv-x="106" />
<glyph unicode="&#x2010;" horiz-adv-x="835" d="M102 485v299h631v-299h-631z" />
<glyph unicode="&#x2011;" horiz-adv-x="835" d="M102 485v299h631v-299h-631z" />
<glyph unicode="&#x2012;" horiz-adv-x="835" d="M102 485v299h631v-299h-631z" />
<glyph unicode="&#x2013;" horiz-adv-x="1081" d="M102 489v291h877v-291h-877z" />
<glyph unicode="&#x2014;" horiz-adv-x="1839" d="M102 489v291h1635v-291h-1635z" />
<glyph unicode="&#x2018;" horiz-adv-x="585" d="M117 784v277q0 197 95 288t284 95l26 -129q-217 -23 -200 -203h127v-328h-332z" />
<glyph unicode="&#x2019;" horiz-adv-x="585" d="M63 903q217 23 201 203h-127v328h332v-277q0 -197 -95 -288t-284 -95z" />
<glyph unicode="&#x201a;" horiz-adv-x="585" d="M53 -203q217 23 201 203h-127v328h332v-277q0 -197 -95.5 -288t-283.5 -95z" />
<glyph unicode="&#x201c;" horiz-adv-x="1105" d="M117 784v277q0 197 95 288t284 95l26 -129q-217 -23 -200 -203h127v-328h-332zM637 784v277q0 197 95 288t284 95l26 -129q-217 -23 -200 -203h127v-328h-332z" />
<glyph unicode="&#x201d;" horiz-adv-x="1105" d="M63 903q217 23 201 203h-127v328h332v-277q0 -197 -95 -288t-284 -95zM584 903q217 23 200 203h-127v328h332v-277q0 -197 -95 -288t-284 -95z" />
<glyph unicode="&#x201e;" horiz-adv-x="1105" d="M53 -203q217 23 201 203h-127v328h332v-277q0 -197 -95.5 -288t-283.5 -95zM573 -203q217 23 201 203h-127v328h332v-277q0 -197 -95.5 -288t-283.5 -95z" />
<glyph unicode="&#x2022;" horiz-adv-x="1024" d="M207 721q0 127 89 216t216 89t216 -89t89 -216t-89 -216t-216 -89t-216 89t-89 216z" />
<glyph unicode="&#x2026;" horiz-adv-x="1720" d="M127 0v319h324v-319h-324zM698 0v319h324v-319h-324zM1270 0v319h323v-319h-323z" />
<glyph unicode="&#x202f;" horiz-adv-x="381" />
<glyph unicode="&#x2039;" horiz-adv-x="763" d="M84 541v16l344 459l238 -115l-267 -350l267 -350l-238 -119z" />
<glyph unicode="&#x203a;" horiz-adv-x="763" d="M98 197l267 350l-267 350l238 119l344 -459v-16l-344 -459z" />
<glyph unicode="&#x205f;" horiz-adv-x="477" />
<glyph unicode="&#x2122;" horiz-adv-x="1413" d="M53 1307v127h520v-127h-188v-504h-143v504h-189zM707 803v631h151l166 -267l166 267h147v-631h-135v426l-174 -277h-12l-174 277v-426h-135z" />
<glyph unicode="&#x25fc;" horiz-adv-x="1095" d="M0 0v1096h1096v-1096h-1096z" />
<glyph unicode="&#xfb01;" horiz-adv-x="1400" d="M63 831v256h130v70q0 352 339 352q125 0 222 -30v-258q-74 27 -142 26q-113 0 -112 -119v-43h252v-254h-248v-831h-311v831h-130zM928 1219v276h327v-276h-327zM936 0v1098h311v-1098h-311z" />
<glyph unicode="&#xfb02;" horiz-adv-x="1400" d="M63 831v256h130v70q0 352 339 352q125 0 222 -30v-258q-74 27 -142 26q-113 0 -112 -119v-43h252v-254h-248v-831h-311v831h-130zM936 0v1495h311v-1495h-311z" />
</font>
</defs>
</svg>
