<?xml version="1.0" standalone="no"?>
<!DOCTYPE svg PUBLIC "-//W3C//DTD SVG 1.1//EN" "http://www.w3.org/Graphics/SVG/1.1/DTD/svg11.dtd" >
<svg xmlns="http://www.w3.org/2000/svg" xmlns:xlink="http://www.w3.org/1999/xlink" version="1.1">
<metadata></metadata>
<defs>
<font id="gothammediumregular" horiz-adv-x="1372" >
<font-face units-per-em="2048" ascent="1638" descent="-410" />
<missing-glyph horiz-adv-x="614" />
<glyph horiz-adv-x="0" />
<glyph unicode="&#xd;" horiz-adv-x="681" />
<glyph unicode=" "  horiz-adv-x="614" />
<glyph unicode="&#x09;" horiz-adv-x="614" />
<glyph unicode="&#xa0;" horiz-adv-x="614" />
<glyph unicode="!" horiz-adv-x="618" d="M164 1362v72h291v-72l-76 -909h-137zM174 0v281h272v-281h-272z" />
<glyph unicode="&#x22;" horiz-adv-x="997" d="M123 821l47 613h281v-11l-199 -602h-129zM571 821l50 613h280v-11l-201 -602h-129z" />
<glyph unicode="#" horiz-adv-x="1433" d="M80 330v213h221l59 356h-204v213h241l56 322h219l-56 -322h336l54 322h219l-56 -322h183v-213h-219l-60 -356h205v-213h-242l-57 -330h-219l57 330h-336l-55 -330h-219l57 330h-184zM518 543h336l61 356h-335z" />
<glyph unicode="$" horiz-adv-x="1314" d="M100 207l131 186q184 -150 361 -176v401q-229 59 -333.5 155.5t-104.5 266.5q0 164 117.5 270.5t312.5 123.5v118h178v-122q211 -27 385 -156l-115 -193q-133 100 -278 131v-389q233 -59 338.5 -158.5t105.5 -265.5q0 -168 -120 -274.5t-316 -122.5v-203h-178v205 q-266 31 -484 203zM395 1055q0 -68 42 -111t155 -78v361q-94 -8 -145.5 -55.5t-51.5 -116.5zM754 209q96 8 149 55t53 121q0 72 -43 116t-159 79v-371z" />
<glyph unicode="%" horiz-adv-x="1738" d="M98 1081q0 154 95.5 261.5t244.5 107.5q147 0 241.5 -106.5t94.5 -258.5q0 -154 -95 -261t-245 -107q-147 0 -241.5 106.5t-94.5 257.5zM244 0l1048 1434h203l-1049 -1434h-202zM281 1085q0 -90 45 -150.5t112 -60.5q70 0 112 59.5t42 147.5q0 90 -45 150.5t-113 60.5 q-70 0 -111.5 -59t-41.5 -148zM965 348q0 154 95 261.5t245 107.5q147 0 241 -106.5t94 -258.5q0 -154 -95 -261t-245 -107q-147 0 -241 106.5t-94 257.5zM1147 352q0 -90 45 -150.5t113 -60.5q70 0 111.5 59.5t41.5 147.5q0 90 -45 150.5t-113 60.5q-70 0 -111.5 -59.5 t-41.5 -147.5z" />
<glyph unicode="&#x26;" horiz-adv-x="1425" d="M80 391q0 272 305 404q-119 154 -119 301q0 152 113 257t299 105q168 0 274.5 -99t106.5 -249q0 -256 -316 -375l246 -250q78 117 154 277l190 -100q-98 -197 -194 -328l225 -230l-186 -133l-191 195q-201 -186 -440 -186q-203 0 -335 112.5t-132 298.5zM334 399 q0 -92 67.5 -151.5t171.5 -59.5q140 0 271 125l-320 326q-190 -82 -190 -240zM502 1085q0 -96 108 -215q115 41 170.5 94.5t55.5 131.5q0 74 -45.5 119t-118.5 45q-76 0 -123 -48.5t-47 -126.5z" />
<glyph unicode="'" horiz-adv-x="550" d="M123 821l47 613h285v-11l-201 -602h-131z" />
<glyph unicode="(" horiz-adv-x="901" d="M129 587.5q0 565.5 567 876.5l109 -166q-221 -145 -324.5 -315t-103.5 -395.5t103.5 -395t324.5 -315.5l-109 -166q-567 311 -567 876.5z" />
<glyph unicode=")" horiz-adv-x="901" d="M98 -123q221 145 324.5 315t103.5 395.5t-103.5 395.5t-324.5 315l109 166q567 -313 567 -876t-567 -877z" />
<glyph unicode="*" horiz-adv-x="880" d="M119 1008l233 102l-233 102l74 125l204 -149l-28 250h143l-29 -250l205 149l74 -125l-234 -102l234 -102l-74 -125l-205 149l29 -250h-143l28 250l-204 -149z" />
<glyph unicode="+" horiz-adv-x="1310" d="M145 608v226h394v391h233v-391h393v-226h-393v-391h-233v391h-394z" />
<glyph unicode="," horiz-adv-x="550" d="M70 -193q188 37 174 193h-105v281h273v-238q0 -166 -78 -247t-238 -93z" />
<glyph unicode="-" horiz-adv-x="835" d="M115 506v244h606v-244h-606z" />
<glyph unicode="." horiz-adv-x="550" d="M139 0v281h273v-281h-273z" />
<glyph unicode="/" horiz-adv-x="1067" d="M-51 -262l925 1896h216l-926 -1896h-215z" />
<glyph unicode="0" horiz-adv-x="1482" d="M117 714.5q0 315.5 175 529.5t451.5 214t449.5 -212t173 -527.5t-175 -529.5t-451.5 -214t-449.5 212t-173 527.5zM377 719q0 -219 101.5 -367.5t265 -148.5t263 146.5t99.5 365.5t-101.5 367.5t-265.5 148.5t-263 -145.5t-99 -366.5z" />
<glyph unicode="1" horiz-adv-x="811" d="M53 1321l385 123h176v-1444h-249v1188l-259 -72z" />
<glyph unicode="2" horiz-adv-x="1255" d="M100 0v199l494 419q152 127 210 210t58 178q0 102 -65.5 162.5t-165.5 60.5q-94 0 -169 -51.5t-163 -163.5l-178 139q111 156 228.5 228.5t299.5 72.5q215 0 344 -118.5t129 -311.5q0 -160 -82 -273.5t-290 -283.5l-295 -246h682v-221h-1037z" />
<glyph unicode="3" horiz-adv-x="1265" d="M88 227l176 164q160 -188 377 -188q109 0 178.5 60.5t69.5 158.5q0 106 -88 164.5t-242 58.5h-117l-41 158l387 411h-620v220h948v-189l-399 -409q186 -25 304 -122.5t118 -283.5q0 -201 -140.5 -328t-361.5 -127q-342 0 -549 252z" />
<glyph unicode="4" horiz-adv-x="1394" d="M74 502l796 942h215v-916h205v-206h-205v-322h-241v322h-723zM373 528h471v568z" />
<glyph unicode="5" horiz-adv-x="1273" d="M96 195l156 182q184 -172 369 -172q129 0 206.5 68.5t77.5 181.5q0 111 -81 175t-216 64q-129 0 -264 -63l-151 100l40 703h857v-224h-639l-23 -336q113 41 227 41q221 0 359.5 -115.5t138.5 -336.5t-145.5 -354.5t-384.5 -133.5q-301 0 -527 220z" />
<glyph unicode="6" horiz-adv-x="1343" d="M117 676q0 344 160.5 563t453.5 219q239 0 438 -160l-135 -194q-162 125 -311 125q-156 0 -245 -126t-99 -329q147 143 342 144q217 0 359.5 -121t142.5 -332q0 -215 -152.5 -352.5t-380.5 -137.5q-246 0 -399 150q-86 88 -130 216t-44 335zM387 453q0 -113 82 -186.5 t215 -73.5q131 0 209 73.5t78 188.5q0 111 -81 181.5t-212 70.5t-211 -74t-80 -180z" />
<glyph unicode="7" horiz-adv-x="1247" d="M139 1212v222h1008v-191l-647 -1243h-283l643 1212h-721z" />
<glyph unicode="8" horiz-adv-x="1290" d="M98 391q0 244 258 352q-209 111 -209 322q0 166 141.5 277.5t356.5 111.5t356.5 -111.5t141.5 -277.5q0 -211 -209 -322q258 -119 258 -346q0 -190 -153.5 -303.5t-393.5 -113.5q-238 0 -392.5 113.5t-154.5 297.5zM344 408q0 -94 82 -156t219 -62t219 62t82 156 q0 98 -86 158.5t-215 60.5t-215 -60.5t-86 -158.5zM389 1042q0 -94 73 -154.5t183.5 -60.5t183 59.5t72.5 153.5q0 86 -71.5 144.5t-184.5 58.5t-184.5 -58.5t-71.5 -142.5z" />
<glyph unicode="9" horiz-adv-x="1343" d="M121 961q0 215 149.5 356t384.5 141q246 0 398 -151q174 -174 174 -549q0 -352 -165 -567.5t-450 -215.5q-252 0 -458 172l137 193q160 -135 327 -135q156 0 248 124t99 326q-127 -152 -336 -151q-229 0 -368.5 124t-139.5 333zM373 972.5q0 -114.5 79.5 -186t213 -71.5 t212 74.5t78.5 185.5q0 115 -81.5 190.5t-217.5 75.5q-131 0 -207.5 -77t-76.5 -191.5z" />
<glyph unicode=":" horiz-adv-x="571" d="M150 0v281h272v-281h-272zM150 801v280h272v-280h-272z" />
<glyph unicode=";" horiz-adv-x="571" d="M80 -193q188 37 174 193h-104v281h272v-238q0 -166 -78 -247t-238 -93zM150 801v280h272v-280h-272z" />
<glyph unicode="&#x3c;" horiz-adv-x="1310" d="M143 610v221l977 453v-235l-731 -326l731 -328v-237z" />
<glyph unicode="=" horiz-adv-x="1310" d="M176 350v230h959v-230h-959zM176 862v230h959v-230h-959z" />
<glyph unicode="&#x3e;" horiz-adv-x="1310" d="M190 158v235l732 326l-732 328v237l977 -453v-221z" />
<glyph unicode="?" horiz-adv-x="1107" d="M49 1225q201 227 494 227q217 0 348 -112.5t131 -305.5q0 -182 -112.5 -282.5t-299.5 -133.5l-20 -165h-166l-41 331l10 11q379 14 379 231q0 88 -63.5 142.5t-171.5 54.5q-182 0 -334 -162zM365 0v281h274v-281h-274z" />
<glyph unicode="@" horiz-adv-x="2007" d="M109 561q0 369 261 633t636 264q184 0 351 -67.5t284.5 -179t187 -259t69.5 -305.5q0 -246 -113.5 -378t-283.5 -132q-213 0 -303 144q-139 -143 -317 -144q-158 0 -264.5 107.5t-106.5 279.5q0 213 141.5 362.5t323.5 149.5q190 0 289 -151l24 123l199 -31l-90 -516 q-10 -61 -11 -88q0 -68 43.5 -107t116.5 -39q115 0 193 109.5t78 310.5q0 291 -235.5 512t-575.5 221q-346 0 -581 -238.5t-235 -580.5q0 -344 236 -579.5t596 -235.5q268 0 506 137l37 -61q-252 -154 -543 -154q-389 0 -651 261t-262 632zM719 537q0 -104 59.5 -163 t157.5 -59q113 0 198 95.5t85 228.5q0 98 -61.5 159.5t-153.5 61.5q-115 0 -200 -94t-85 -229z" />
<glyph unicode="A" horiz-adv-x="1617" d="M61 0l631 1444h234l630 -1444h-266l-145 346h-678l-148 -346h-258zM559 569h494l-248 574z" />
<glyph unicode="B" horiz-adv-x="1478" d="M184 0v1434h643q217 0 344 -99.5t127 -267.5q0 -215 -204 -322q284 -96 284 -348q0 -192 -143 -294.5t-387 -102.5h-664zM432 223h418q131 0 203.5 51.5t72.5 147.5q0 194 -292 194h-3h-399v-393zM432 829h344q125 0 198 50.5t73 146.5q0 88 -66 136t-186 48h-363v-381z " />
<glyph unicode="C" horiz-adv-x="1511" d="M121 714.5q0 311.5 209 527.5t530 216q186 0 316.5 -57.5t244.5 -165.5l-161 -186q-193 178 -402 178q-205 0 -339 -146.5t-134 -361.5t135 -363.5t338 -148.5q123 0 217 46t195 140l162 -164q-121 -127 -256.5 -190.5t-325.5 -63.5q-311 0 -520 214t-209 525.5z" />
<glyph unicode="D" horiz-adv-x="1601" d="M184 0v1434h535q334 0 548 -204t214 -511t-214 -513t-548 -206h-535zM436 229h283q223 0 360.5 136.5t137.5 349.5q0 215 -137.5 352t-360.5 137h-283v-975z" />
<glyph unicode="E" d="M184 0v1434h1063v-226h-811v-372h719v-226h-719v-385h821v-225h-1073z" />
<glyph unicode="F" horiz-adv-x="1343" d="M184 0v1434h1067v-230h-815v-391h723v-229h-723v-584h-252z" />
<glyph unicode="G" horiz-adv-x="1605" d="M121 715q0 307 210 525t529 218q180 0 307 -48t244 -146l-160 -191q-90 78 -181 116t-220 38q-197 0 -331 -148.5t-134 -359.5q0 -225 135 -369.5t352 -144.5q201 0 347 108v269h-367v219h610v-602q-260 -223 -598 -224q-332 0 -537.5 210t-205.5 530z" />
<glyph unicode="H" horiz-adv-x="1556" d="M184 0v1434h252v-596h684v596h252v-1434h-252v604h-684v-604h-252z" />
<glyph unicode="I" horiz-adv-x="649" d="M199 0v1434h252v-1434h-252z" />
<glyph unicode="J" horiz-adv-x="1144" d="M43 211l166 170q133 -168 289 -168q104 0 165.5 70.5t61.5 210.5v940h258v-947q0 -248 -131 -377.5t-350 -129.5q-289 0 -459 231z" />
<glyph unicode="K" horiz-adv-x="1484" d="M184 0v1434h252v-721l682 721h309l-596 -617l623 -817h-305l-490 645l-223 -229v-416h-252z" />
<glyph unicode="L" horiz-adv-x="1267" d="M184 0v1434h252v-1205h754v-229h-1006z" />
<glyph unicode="M" horiz-adv-x="1777" d="M184 0v1434h269l436 -678l436 678h268v-1434h-252v1028l-452 -676h-8l-449 672v-1024h-248z" />
<glyph unicode="N" horiz-adv-x="1617" d="M184 0v1434h234l768 -992v992h248v-1434h-211l-791 1020v-1020h-248z" />
<glyph unicode="O" horiz-adv-x="1740" d="M121 715q0 309 213 526t538.5 217t536.5 -215t211 -524t-213 -526.5t-538.5 -217.5t-536.5 215.5t-211 524.5zM385 719q0 -213 138.5 -362.5t349 -149.5t347 147.5t136.5 360.5t-138.5 362.5t-349.5 149.5t-347 -147.5t-136 -360.5z" />
<glyph unicode="P" horiz-adv-x="1368" d="M184 0v1434h566q250 0 397 -131.5t147 -350.5q0 -233 -162.5 -362t-410.5 -129h-285v-461h-252zM436 688h293q141 0 225 70.5t84 187.5q0 125 -83 191.5t-226 66.5h-293v-516z" />
<glyph unicode="Q" horiz-adv-x="1740" d="M121 715q0 309 213 526t538.5 217t536.5 -215t211 -524q0 -246 -145 -443l163 -139l-161 -180l-172 154q-195 -135 -437 -136q-326 0 -536.5 215.5t-210.5 524.5zM385 719q0 -213 138.5 -362.5t348.5 -149.5h4q135 0 242 69l-246 209l162 185l248 -226q74 113 74 271 q0 213 -138.5 362.5t-349.5 149.5t-347 -147.5t-136 -360.5z" />
<glyph unicode="R" horiz-adv-x="1480" d="M184 0v1434h639q248 0 390.5 -122t142.5 -333q0 -172 -92.5 -282.5t-249.5 -153.5l387 -543h-297l-352 500h-316v-500h-252zM436 723h369q135 0 215 65.5t80 176.5q0 117 -78 178t-219 61h-367v-481z" />
<glyph unicode="S" horiz-adv-x="1310" d="M88 209l152 180q215 -186 452 -186q117 0 185.5 49t68.5 133q0 82 -65.5 129t-257.5 92q-250 61 -364 151.5t-114 278.5q0 186 137.5 302t352.5 116q295 0 520 -180l-135 -191q-199 147 -389 148q-109 0 -171.5 -49t-62.5 -123q0 -86 69 -132t271 -96q238 -57 349.5 -153 t111.5 -268q0 -199 -141.5 -314.5t-370.5 -115.5q-342 0 -598 229z" />
<glyph unicode="T" horiz-adv-x="1327" d="M82 1200v234h1163v-234h-454v-1200h-254v1200h-455z" />
<glyph unicode="U" horiz-adv-x="1550" d="M162 608v826h252v-816q0 -197 96 -303t266 -106t265.5 102.5t95.5 296.5v826h252v-813q0 -313 -164 -478.5t-453 -165.5q-285 0 -447.5 162t-162.5 469z" />
<glyph unicode="V" horiz-adv-x="1536" d="M61 1434h279l432 -1102l430 1102h273l-596 -1444h-222z" />
<glyph unicode="W" horiz-adv-x="2285" d="M74 1434h272l342 -1063l352 1067h213l353 -1067l342 1063h264l-500 -1444h-217l-352 1030l-352 -1030h-218z" />
<glyph unicode="X" horiz-adv-x="1492" d="M76 0l522 729l-502 705h297l357 -514l358 514h289l-500 -701l520 -733h-297l-377 543l-378 -543h-289z" />
<glyph unicode="Y" horiz-adv-x="1466" d="M37 1434h297l401 -635l406 635h289l-570 -863v-571h-254v565z" />
<glyph unicode="Z" horiz-adv-x="1437" d="M133 0v186l846 1024h-819v224h1147v-187l-846 -1024h846v-223h-1174z" />
<glyph unicode="[" horiz-adv-x="929" d="M180 -266v1700h629v-195h-393v-1311h393v-194h-629z" />
<glyph unicode="\" horiz-adv-x="1067" d="M-23 1634h216l925 -1896h-215z" />
<glyph unicode="]" horiz-adv-x="929" d="M121 -72h393v1311h-393v195h631v-1700h-631v194z" />
<glyph unicode="^" horiz-adv-x="1024" d="M115 1010l309 426h176l309 -426h-190l-209 270l-209 -270h-186z" />
<glyph unicode="_" horiz-adv-x="1228" d="M-4 -135h1237v-193h-1237v193z" />
<glyph unicode="`" horiz-adv-x="1024" d="M254 1454l225 100l217 -335h-192z" />
<glyph unicode="a" horiz-adv-x="1202" d="M82 311v4q0 170 121 259.5t317 89.5q158 0 299 -46v27q0 113 -68.5 172.5t-197.5 59.5q-147 0 -309 -68l-68 199q201 90 412 90q236 0 355.5 -119t119.5 -338v-641h-246v133q-131 -156 -350 -156q-162 0 -273.5 89.5t-111.5 244.5zM328 324q0 -74 59 -117t150 -43 q125 0 205.5 63.5t80.5 163.5v68q-111 43 -248 43q-117 0 -182 -46t-65 -128v-4z" />
<glyph unicode="b" d="M156 0v1495h247v-594q143 203 367 203q205 0 354.5 -152.5t149.5 -410.5t-149.5 -411t-354.5 -153q-223 0 -367 191v-168h-247zM397 540.5q0 -153.5 92.5 -250.5t223.5 -97t220 95t89 253q0 156 -90 252t-219 96q-131 0 -223.5 -97.5t-92.5 -251z" />
<glyph unicode="c" horiz-adv-x="1169" d="M96 537q0 236 161 401.5t400 165.5q262 0 433 -186l-154 -166q-129 135 -281 135q-133 0 -222 -100.5t-89 -245.5q0 -147 91 -249t233 -102q150 0 280 136l150 -148q-88 -98 -191.5 -150.5t-251.5 -52.5q-240 0 -399.5 164t-159.5 398z" />
<glyph unicode="d" d="M100 541q0 258 148.5 410.5t353.5 152.5q221 0 369 -191v582h248v-1495h-248v180q-143 -203 -369 -203q-203 0 -352.5 153t-149.5 411zM350 541q0 -156 91 -252t220.5 -96t221.5 97t92 250.5t-92 251t-221 97.5q-131 0 -221.5 -95.5t-90.5 -252.5z" />
<glyph unicode="e" horiz-adv-x="1236" d="M96 539q0 238 149.5 401.5t379.5 163.5q248 0 383 -167t135 -417q0 -18 -4 -67h-795q20 -129 104 -202t207 -73q160 0 293 129l146 -129q-168 -203 -443 -203q-238 0 -396.5 158t-158.5 406zM342 616h555q-12 125 -84 205t-190 80q-113 0 -189 -79t-92 -206z" />
<glyph unicode="f" horiz-adv-x="770" d="M74 868v207h137v78q0 354 332 354q104 0 200 -28v-209q-77 26 -140 26h-5q-143 0 -143 -163v-60h286v-205h-282v-868h-248v868h-137z" />
<glyph unicode="g" d="M100 593.5q0 231.5 146.5 371t345.5 139.5q225 0 379 -184v161h248v-860q0 -553 -582 -553q-270 0 -483 129l92 187q184 -115 385 -115q166 0 254 85t88 247v84q-154 -199 -381 -199q-201 0 -346.5 138t-145.5 369.5zM350 596q0 -133 89 -217t218 -84q131 0 224.5 84 t93.5 215q0 133 -92 217t-226 84q-131 0 -219 -83t-88 -216z" />
<glyph unicode="h" horiz-adv-x="1269" d="M156 0v1495h247v-582q129 190 338 191q180 0 282.5 -112.5t102.5 -303.5v-688h-247v614q0 127 -60.5 196t-171.5 69q-109 0 -176.5 -72t-67.5 -197v-610h-247z" />
<glyph unicode="i" horiz-adv-x="585" d="M160 1247v236h266v-236h-266zM170 0v1081h248v-1081h-248z" />
<glyph unicode="j" horiz-adv-x="585" d="M-16 -125q37 -6 69 -6q117 0 117 131v1081h248v-1095q0 -319 -316 -320q-53 0 -118 10v199zM160 1247v236h266v-236h-266z" />
<glyph unicode="k" horiz-adv-x="1191" d="M156 0v1495h247v-893l449 479h301l-430 -440l444 -641h-286l-326 467l-152 -158v-309h-247z" />
<glyph unicode="l" horiz-adv-x="585" d="M170 0v1495h248v-1495h-248z" />
<glyph unicode="m" horiz-adv-x="1945" d="M156 0v1081h247v-163q135 186 330 186q226 -1 322 -191q145 190 366 191q178 0 278.5 -108.5t100.5 -305.5v-690h-248v614q0 129 -57 197t-161.5 68t-168 -71t-63.5 -198v-610h-248v616q0 125 -57.5 194t-162 69t-168 -73t-63.5 -198v-608h-247z" />
<glyph unicode="n" horiz-adv-x="1269" d="M156 0v1081h247v-168q129 190 338 191q180 0 282.5 -112.5t102.5 -303.5v-688h-247v614q0 127 -60.5 196t-171.5 69q-109 0 -176.5 -72t-67.5 -197v-610h-247z" />
<glyph unicode="o" horiz-adv-x="1345" d="M96 537q0 236 166 401.5t412 165.5t410.5 -164t164.5 -399.5t-165.5 -400.5t-413.5 -165q-246 0 -410 164t-164 398zM344 540.5q0 -147.5 93 -249t237 -101.5q147 0 237 99.5t90 247t-94 249t-237 101.5q-145 0 -235.5 -99.5t-90.5 -247z" />
<glyph unicode="p" d="M156 -328v1409h247v-180q143 203 367 203q205 0 354.5 -152.5t149.5 -410.5t-149.5 -411t-354.5 -153q-223 0 -367 191v-496h-247zM397 540.5q0 -153.5 92.5 -250.5t223.5 -97t220 95t89 253q0 156 -90 252t-219 96q-131 0 -223.5 -97.5t-92.5 -251z" />
<glyph unicode="q" d="M100 541q0 258 148.5 410.5t353.5 152.5q221 0 369 -191v168h248v-1409h-248v508q-143 -203 -369 -203q-203 0 -352.5 153t-149.5 411zM350 541q0 -156 91 -252t220.5 -96t221.5 97t92 250.5t-92 251t-221 97.5q-131 0 -221.5 -95.5t-90.5 -252.5z" />
<glyph unicode="r" horiz-adv-x="845" d="M156 0v1081h247v-243q110 264 361 264h22v-262h-14q-168 0 -268.5 -109.5t-100.5 -318.5v-412h-247z" />
<glyph unicode="s" horiz-adv-x="1024" d="M68 141l110 168q176 -133 354 -133q80 0 124 32t44 85v4q0 78 -217 143l-24 9q-74 20 -123 40.5t-104.5 56.5t-83 91t-27.5 129v4q0 150 109.5 240t275.5 90q211 0 397 -123l-98 -176q-168 102 -305 102q-72 0 -112 -29.5t-40 -78.5v-4q0 -49 54.5 -79t168.5 -67 q4 0 6.5 -1t6.5 -2t8 -3q72 -23 121 -44.5t103 -58t83 -90t29 -122.5v-5q0 -164 -113 -251.5t-289 -87.5q-254 0 -458 161z" />
<glyph unicode="t" horiz-adv-x="839" d="M70 868v213h137v297h248v-297h290v-213h-290v-530q0 -135 133 -135q80 0 153 37v-203q-98 -55 -223 -55q-311 0 -311 317v569h-137z" />
<glyph unicode="u" horiz-adv-x="1269" d="M143 393v688h248v-614q0 -127 60.5 -195.5t171.5 -68.5q109 0 176 71.5t67 196.5v610h248v-1081h-248v168q-129 -190 -338 -191q-180 0 -282.5 113t-102.5 303z" />
<glyph unicode="v" horiz-adv-x="1218" d="M53 1081h266l291 -794l293 794h260l-442 -1089h-223z" />
<glyph unicode="w" horiz-adv-x="1763" d="M66 1081h253l218 -741l239 745h211l242 -745l221 741h248l-355 -1089h-221l-241 739l-244 -739h-221z" />
<glyph unicode="x" horiz-adv-x="1187" d="M61 0l398 549l-383 532h270l250 -356l250 356h264l-383 -526l399 -555h-270l-266 379l-264 -379h-265z" />
<glyph unicode="y" horiz-adv-x="1220" d="M53 1081h264l308 -802l280 802h258l-430 -1112q-66 -166 -145.5 -234.5t-210.5 -68.5q-135 0 -256 66l84 184q76 -41 145 -41q53 0 88 27.5t66 97.5z" />
<glyph unicode="z" horiz-adv-x="1146" d="M106 0v170l625 709h-602v202h918v-170l-625 -708h625v-203h-941z" />
<glyph unicode="{" horiz-adv-x="997" d="M106 494v188h54q127 0 179 52t52 173q0 18 -2 75.5t-2 72.5q0 168 99.5 264t365.5 145l43 -164q-176 -49 -227.5 -105t-51.5 -175q0 -20 2.5 -74.5t2.5 -77.5q0 -115 -53.5 -180t-159.5 -100q109 -35 161 -100.5t52 -180.5q0 -23 -2.5 -77t-2.5 -74q0 -119 51.5 -175.5 t227.5 -105.5l-43 -164q-266 49 -365.5 145.5t-99.5 264.5q0 14 2 71.5t2 75.5q0 121 -52 173.5t-179 52.5h-54z" />
<glyph unicode="|" horiz-adv-x="677" d="M240 -262v1896h198v-1896h-198z" />
<glyph unicode="}" horiz-adv-x="997" d="M102 -125q176 49 227.5 105.5t51.5 175.5q0 20 -2 74.5t-2 76.5q0 115 53 180.5t160 100.5q-109 35 -161 100.5t-52 179.5q0 23 2 77t2 75q0 119 -51 175t-228 105l43 164q266 -49 365.5 -145t99.5 -264q0 -14 -2 -71.5t-2 -76.5q0 -121 52.5 -173t179.5 -52h53v-188h-53 q-127 0 -179.5 -52.5t-52.5 -173.5q0 -18 2 -75.5t2 -71.5q0 -168 -99 -264.5t-366 -145.5z" />
<glyph unicode="~" horiz-adv-x="1013" d="M121 512q35 131 87 192.5t142 61.5q61 0 161.5 -41t131.5 -41q43 0 66.5 23.5t46.5 78.5l137 -41q-35 -131 -87 -193.5t-142 -62.5q-61 0 -162 41t-131 41q-43 0 -66.5 -23.5t-46.5 -78.5z" />
<glyph unicode="&#xa1;" horiz-adv-x="618" d="M164 0v72l78 909h137l76 -909v-72h-291zM174 1153v281h272v-281h-272z" />
<glyph unicode="&#xa2;" horiz-adv-x="1189" d="M106 725q0 236 161 400.5t399 164.5h18l31 156h180l-37 -182q129 -37 242 -160l-150 -160q-80 78 -143 100l-129 -661q6 -2 20 -2q137 8 260 131l144 -141q-180 -205 -434 -207q-16 0 -25 2l-33 -178h-180l41 207q-162 59 -263.5 203.5t-101.5 326.5zM348 729 q0 -104 47 -187t127 -126l127 659h-4q-129 -6 -213 -105.5t-84 -240.5z" />
<glyph unicode="&#xa3;" horiz-adv-x="1318" d="M129 0v160l162 49v360h-162v213h162v189q0 225 124 354t347 129q279 0 452 -229l-192 -154q-59 76 -117.5 113t-140.5 37q-102 0 -160.5 -69t-58.5 -187v-183h510v-213h-510v-350h665v-219h-1081z" />
<glyph unicode="&#xa4;" horiz-adv-x="1474" d="M106 461v174h158q-2 27 -2 80q0 63 4 94h-160v174h193q63 215 216 345t366 130q174 0 291.5 -70.5t207.5 -199.5l-190 -141q-70 96 -141.5 141t-174.5 45q-109 0 -189.5 -66.5t-123.5 -183.5h438v-174h-479q-4 -57 -4 -90q0 -27 4 -84h479v-174h-442q43 -121 129 -190.5 t205 -69.5q96 0 165.5 47t147.5 147l180 -131q-96 -139 -213.5 -214t-281.5 -75q-223 0 -380 132.5t-216 353.5h-187z" />
<glyph unicode="&#xa5;" horiz-adv-x="1404" d="M39 1434h293l375 -600l374 600h285l-475 -711h328v-182h-396v-150h396v-182h-396v-209h-241v209h-396v182h396v150h-396v182h326z" />
<glyph unicode="&#xa7;" horiz-adv-x="1294" d="M119 717q0 180 219 239q-113 72 -113 197q0 137 107.5 219t294.5 82q289 0 473 -194l-142 -140q-156 145 -329 146q-82 0 -124 -28t-42 -75t55 -77.5t215 -67.5q242 -55 342.5 -121.5t100.5 -179.5q0 -180 -220 -240q113 -72 113 -196q0 -137 -107.5 -219t-293.5 -82 q-289 0 -473 194l141 139q156 -145 330 -145q82 0 123.5 27.5t41.5 74.5t-55 78t-215 68q-242 55 -342 121.5t-100 179.5zM342 752q0 -47 55.5 -80t184.5 -66q145 -37 213 -37q72 0 114.5 32t42.5 81q0 47 -55 80t-184 65q-147 37 -213 37q-72 0 -115 -31.5t-43 -80.5z" />
<glyph unicode="&#xa8;" horiz-adv-x="1024" d="M182 1219v241h252v-241h-252zM590 1219v241h252v-241h-252z" />
<glyph unicode="&#xa9;" horiz-adv-x="1699" d="M109 715q0 305 217 524t526 219t524 -217t215 -522t-217 -524.5t-526 -219.5t-524 217.5t-215 522.5zM186 714.5q0 -278.5 190.5 -472t471.5 -193.5q283 0 474 195.5t191 474t-190 472t-471 193.5q-283 0 -474.5 -195.5t-191.5 -474zM465 725q0 168 112.5 285.5 t284.5 117.5q180 0 305 -120l-96 -111q-102 92 -209 92q-104 0 -172.5 -75.5t-68.5 -186.5q0 -109 69.5 -185.5t171.5 -76.5q111 0 213 96l99 -96q-133 -139 -316 -139q-168 0 -280.5 115.5t-112.5 283.5z" />
<glyph unicode="&#xaa;" horiz-adv-x="798" d="M109 578v118h553v-118h-553zM115 1012q0 94 66.5 143t178.5 49q74 0 156 -22v10q0 125 -143 125q-72 0 -170 -39l-39 111q109 51 229 51q260 0 260 -250v-352h-139v69q-72 -82 -188 -82q-90 0 -150.5 49.5t-60.5 137.5zM256 1018q0 -41 29.5 -64.5t76.5 -23.5 q66 0 110 35t44 88v37q-63 23 -129 22q-61 0 -96 -24.5t-35 -69.5z" />
<glyph unicode="&#xab;" horiz-adv-x="1241" d="M90 532v17l340 450l188 -96l-270 -360l270 -363l-188 -96zM606 532v17l338 450l189 -96l-271 -360l271 -363l-189 -96z" />
<glyph unicode="&#xad;" horiz-adv-x="835" d="M115 506v244h606v-244h-606z" />
<glyph unicode="&#xae;" horiz-adv-x="1699" d="M109 715q0 305 217 524t526 219t524 -217t215 -522t-217 -524.5t-526 -219.5t-524 217.5t-215 522.5zM186 714.5q0 -278.5 190.5 -472t471.5 -193.5q283 0 474 195.5t191 474t-190 472t-471 193.5q-283 0 -474.5 -195.5t-191.5 -474zM551 350v776h346q137 0 218 -66 t81 -181q0 -92 -48 -151.5t-132 -84.5l209 -293h-176l-189 268h-162v-268h-147zM698 748h193q72 0 112.5 32.5t40.5 89.5q0 123 -153 123h-193v-245z" />
<glyph unicode="&#xaf;" horiz-adv-x="1024" d="M162 1229v182h700v-182h-700z" />
<glyph unicode="&#xb0;" horiz-adv-x="964" d="M141 1114q0 133 102.5 232.5t237.5 99.5t238.5 -99.5t103.5 -232.5q0 -135 -103.5 -234.5t-238.5 -99.5t-237.5 99.5t-102.5 234.5zM289 1114q0 -82 55 -140.5t137 -58.5q84 0 139.5 58.5t55.5 140.5q0 80 -56.5 138.5t-138.5 58.5t-137 -58.5t-55 -138.5z" />
<glyph unicode="&#xb1;" horiz-adv-x="1249" d="M80 225l174 162q164 -184 387 -184q119 0 187.5 56t68.5 153q0 98 -83 151t-232 53h-154v213h160q125 0 197.5 56.5t72.5 150.5q0 88 -66.5 141.5t-181.5 53.5q-172 0 -325 -180l-176 143q100 129 218.5 196.5t286.5 67.5q221 0 357.5 -108.5t136.5 -276.5 q0 -233 -213 -338q252 -96 252 -325q0 -190 -137.5 -312.5t-372.5 -122.5q-338 0 -557 250z" />
<glyph unicode="&#xb4;" horiz-adv-x="1024" d="M328 1219l217 335l225 -100l-250 -235h-192z" />
<glyph unicode="&#xb5;" horiz-adv-x="1740" d="M121 715q0 309 213 526t538.5 217t536.5 -215t211 -524q0 -162 -64.5 -305.5t-181.5 -247.5l359 -356v-17h-369l-238 227q-125 -45 -258 -45q-326 0 -536.5 215.5t-210.5 524.5zM385 719q0 -213 138.5 -362.5t349 -149.5t347 147.5t136.5 360.5t-138.5 362.5 t-349.5 149.5t-347 -147.5t-136 -360.5z" />
<glyph unicode="&#xb6;" horiz-adv-x="1140" d="M82 967q0 217 152.5 342t402.5 125h326v-1434h-254v500h-37q-262 0 -426 121.5t-164 345.5z" />
<glyph unicode="&#xb7;" horiz-adv-x="550" d="M139 487v281h273v-281h-273z" />
<glyph unicode="&#xb8;" horiz-adv-x="1024" d="M268 -248l185 268h186l-154 -358z" />
<glyph unicode="&#xba;" horiz-adv-x="798" d="M90 1133q0 131 89 221t222 90q131 0 219.5 -90t88.5 -219q0 -131 -89.5 -221.5t-222.5 -90.5q-131 0 -219 90.5t-88 219.5zM104 578v118h590v-118h-590zM233 1135q0 -76 48.5 -130.5t119.5 -54.5q74 0 119 52.5t45 130.5q0 76 -48 130t-120 54q-74 0 -119 -52.5 t-45 -129.5z" />
<glyph unicode="&#xbb;" horiz-adv-x="1241" d="M109 178l270 361l-270 362l188 98l338 -450v-17l-338 -448zM623 178l270 361l-270 362l188 98l340 -450v-17l-340 -448z" />
<glyph unicode="&#xbf;" horiz-adv-x="1107" d="M86 399q0 182 112.5 282.5t299.5 133.5l20 166h166l41 -332l-10 -10q-379 -14 -379 -231q0 -88 63.5 -142.5t171.5 -54.5q182 0 334 162l154 -164q-201 -227 -494 -227q-217 0 -348 112.5t-131 304.5zM469 1153v281h274v-281h-274z" />
<glyph unicode="&#xc0;" horiz-adv-x="1617" d="M61 0l631 1444h234l630 -1444h-266l-145 346h-678l-148 -346h-258zM469 1788l225 100l217 -336h-192zM559 569h494l-248 574z" />
<glyph unicode="&#xc1;" horiz-adv-x="1617" d="M61 0l631 1444h234l630 -1444h-266l-145 346h-678l-148 -346h-258zM559 569h494l-248 574zM707 1552l217 336l225 -100l-250 -236h-192z" />
<glyph unicode="&#xc2;" horiz-adv-x="1617" d="M61 0l631 1444h234l630 -1444h-266l-145 346h-678l-148 -346h-258zM457 1550l237 299h230l237 -299h-196l-158 138l-158 -138h-192zM559 569h494l-248 574z" />
<glyph unicode="&#xc3;" horiz-adv-x="1617" d="M61 0l631 1444h234l630 -1444h-266l-145 346h-678l-148 -346h-258zM422 1573q35 131 87 193.5t142 62.5q61 0 161.5 -41t133.5 -41q41 0 64.5 22.5t48.5 79.5l137 -43q-35 -131 -87 -192.5t-142 -61.5q-61 0 -161.5 41t-133.5 41q-41 0 -64.5 -22.5t-48.5 -79.5zM559 569 h494l-248 574z" />
<glyph unicode="&#xc4;" horiz-adv-x="1617" d="M61 0l631 1444h234l630 -1444h-266l-145 346h-678l-148 -346h-258zM479 1552v242h252v-242h-252zM559 569h494l-248 574zM887 1552v242h252v-242h-252z" />
<glyph unicode="&#xc5;" horiz-adv-x="1617" d="M61 0l611 1401q-96 72 -97 180q0 92 71 158.5t163 66.5t162.5 -66.5t70.5 -158.5q0 -109 -96 -180l610 -1401h-266l-145 346h-678l-148 -346h-258zM559 569h494l-248 574zM682 1581q0 -53 38 -90t89 -37t89 37t38 90t-38 90t-89 37t-89 -37t-38 -90z" />
<glyph unicode="&#xc6;" horiz-adv-x="2140" d="M25 0l800 1434h1190v-226h-766v-372h674v-226h-674v-385h776v-225h-1028v346h-522l-190 -346h-260zM596 569h401v645h-41z" />
<glyph unicode="&#xc7;" horiz-adv-x="1511" d="M121 715q0 311 209 527t530 216q186 0 316.5 -57.5t244.5 -165.5l-161 -186q-193 178 -402 178q-205 0 -339 -146.5t-134 -361.5t135 -363.5t338 -148.5q123 0 217 46t195 140l162 -164q-113 -119 -239 -181t-298 -71l-135 -315l-215 90l162 238q-258 47 -422 249.5 t-164 475.5z" />
<glyph unicode="&#xc8;" d="M184 0v1434h1063v-226h-811v-372h719v-226h-719v-385h821v-225h-1073zM420 1788l225 100l217 -336h-192z" />
<glyph unicode="&#xc9;" d="M184 0v1434h1063v-226h-811v-372h719v-226h-719v-385h821v-225h-1073zM567 1552l217 336l226 -100l-250 -236h-193z" />
<glyph unicode="&#xca;" d="M184 0v1434h1063v-226h-811v-372h719v-226h-719v-385h821v-225h-1073zM358 1552l238 299h229l238 -299h-197l-157 138l-158 -138h-193z" />
<glyph unicode="&#xcb;" d="M184 0v1434h1063v-226h-811v-372h719v-226h-719v-385h821v-225h-1073zM381 1552v242h252v-242h-252zM788 1552v242h252v-242h-252z" />
<glyph unicode="&#xcc;" horiz-adv-x="649" d="M-12 1788l225 100l217 -336h-192zM199 0v1434h252v-1434h-252z" />
<glyph unicode="&#xcd;" horiz-adv-x="649" d="M199 0v1434h252v-1434h-252zM221 1552l217 336l226 -100l-250 -236h-193z" />
<glyph unicode="&#xce;" horiz-adv-x="649" d="M-27 1552l238 299h229l238 -299h-197l-157 138l-158 -138h-193zM199 0v1434h252v-1434h-252z" />
<glyph unicode="&#xcf;" horiz-adv-x="649" d="M199 0v1434h252v-1434h-252zM199 1552v242h252v-242h-252zM606 1552v242h252v-242h-252z" />
<glyph unicode="&#xd0;" horiz-adv-x="1662" d="M92 608v226h154v600h534q334 0 548 -204t214 -511t-214 -513t-548 -206h-534v608h-154zM496 229h284q223 0 360.5 136.5t137.5 349.5q0 215 -137 352t-361 137h-284v-370h360v-226h-360v-379z" />
<glyph unicode="&#xd1;" horiz-adv-x="1617" d="M184 0v1434h234l768 -992v992h248v-1434h-211l-791 1020v-1020h-248zM422 1573q35 131 87 193.5t142 62.5q61 0 161.5 -41t133.5 -41q41 0 64.5 22.5t48.5 79.5l137 -43q-35 -131 -87 -192.5t-142 -61.5q-61 0 -161.5 41t-133.5 41q-41 0 -64.5 -22.5t-48.5 -79.5z" />
<glyph unicode="&#xd2;" horiz-adv-x="1740" d="M121 715q0 309 213 526t538.5 217t536.5 -215t211 -524t-213 -526.5t-538.5 -217.5t-536.5 215.5t-211 524.5zM385 719q0 -213 138.5 -362.5t349 -149.5t347 147.5t136.5 360.5t-138.5 362.5t-349.5 149.5t-347 -147.5t-136 -360.5zM516 1788l225 100l217 -336h-192z" />
<glyph unicode="&#xd3;" horiz-adv-x="1740" d="M121 715q0 309 213 526t538.5 217t536.5 -215t211 -524t-213 -526.5t-538.5 -217.5t-536.5 215.5t-211 524.5zM385 719q0 -213 138.5 -362.5t349 -149.5t347 147.5t136.5 360.5t-138.5 362.5t-349.5 149.5t-347 -147.5t-136 -360.5zM782 1552l217 336l226 -100l-250 -236 h-193z" />
<glyph unicode="&#xd4;" horiz-adv-x="1740" d="M121 715q0 309 213 526t538.5 217t536.5 -215t211 -524t-213 -526.5t-538.5 -217.5t-536.5 215.5t-211 524.5zM385 719q0 -213 138.5 -362.5t349 -149.5t347 147.5t136.5 360.5t-138.5 362.5t-349.5 149.5t-347 -147.5t-136 -360.5zM518 1552l238 299h229l238 -299h-197 l-158 138l-157 -138h-193z" />
<glyph unicode="&#xd5;" horiz-adv-x="1740" d="M121 715q0 309 213 526t538.5 217t536.5 -215t211 -524t-213 -526.5t-538.5 -217.5t-536.5 215.5t-211 524.5zM385 719q0 -213 138.5 -362.5t349 -149.5t347 147.5t136.5 360.5t-138.5 362.5t-349.5 149.5t-347 -147.5t-136 -360.5zM483 1573q35 131 87.5 193.5 t142.5 62.5q61 0 161.5 -41t133.5 -41q41 0 64.5 22.5t47.5 79.5l137 -43q-35 -131 -87 -192.5t-142 -61.5q-61 0 -161.5 41t-133.5 41q-41 0 -64.5 -22.5t-47.5 -79.5z" />
<glyph unicode="&#xd6;" horiz-adv-x="1740" d="M121 715q0 309 213 526t538.5 217t536.5 -215t211 -524t-213 -526.5t-538.5 -217.5t-536.5 215.5t-211 524.5zM385 719q0 -213 138.5 -362.5t349 -149.5t347 147.5t136.5 360.5t-138.5 362.5t-349.5 149.5t-347 -147.5t-136 -360.5zM541 1552v242h252v-242h-252z M948 1552v242h252v-242h-252z" />
<glyph unicode="&#xd8;" horiz-adv-x="1740" d="M104 -10l203 229q-186 203 -186 496q0 309 213 526t538 217q233 0 418 -123l99 109h247l-202 -230q186 -202 186 -495q0 -309 -213 -526.5t-539 -217.5q-233 0 -417 123l-99 -108h-248zM379 719q0 -170 96 -307l655 739q-117 80 -262 80q-211 0 -350 -149.5t-139 -362.5z M610 283q117 -80 262 -80q211 0 350.5 149.5t139.5 362.5q0 170 -96 307z" />
<glyph unicode="&#xd9;" horiz-adv-x="1550" d="M162 608v826h252v-816q0 -197 96 -303t266 -106t265.5 102.5t95.5 296.5v826h252v-813q0 -313 -164 -478.5t-453 -165.5q-285 0 -447.5 162t-162.5 469zM449 1778l225 100l217 -336h-193z" />
<glyph unicode="&#xda;" horiz-adv-x="1550" d="M162 608v826h252v-816q0 -197 96 -303t266 -106t265.5 102.5t95.5 296.5v826h252v-813q0 -313 -164 -478.5t-453 -165.5q-285 0 -447.5 162t-162.5 469zM659 1542l218 336l225 -100l-250 -236h-193z" />
<glyph unicode="&#xdb;" horiz-adv-x="1550" d="M162 608v826h252v-816q0 -197 96 -303t266 -106t265.5 102.5t95.5 296.5v826h252v-813q0 -313 -164 -478.5t-453 -165.5q-285 0 -447.5 162t-162.5 469zM424 1550l238 299h229l237 -299h-196l-158 138l-158 -138h-192z" />
<glyph unicode="&#xdc;" horiz-adv-x="1550" d="M162 608v826h252v-816q0 -197 96 -303t266 -106t265.5 102.5t95.5 296.5v826h252v-813q0 -313 -164 -478.5t-453 -165.5q-285 0 -447.5 162t-162.5 469zM446 1550v242h252v-242h-252zM854 1550v242h252v-242h-252z" />
<glyph unicode="&#xdd;" horiz-adv-x="1466" d="M37 1434h297l401 -635l406 635h289l-570 -863v-571h-254v565zM637 1542l217 336l225 -100l-250 -236h-192z" />
<glyph unicode="&#xde;" horiz-adv-x="1378" d="M184 0v1434h252v-226h314q250 0 397 -130t147 -349q0 -236 -162.5 -363.5t-410.5 -127.5h-285v-238h-252zM436 463h293q141 0 225 71.5t84 188.5q0 125 -83 191.5t-226 66.5h-293v-518z" />
<glyph unicode="&#xdf;" horiz-adv-x="1269" d="M156 0v1028q0 223 131 352t356 129q203 0 321.5 -109.5t118.5 -277.5q0 -227 -225 -352q311 -106 311 -367q0 -199 -151.5 -307t-411.5 -100v190q152 4 234 61.5t82 162.5q0 98 -85 157.5t-231 77.5v168q231 113 232 287q0 90 -56.5 144t-150.5 54q-102 0 -166 -71.5 t-64 -190.5v-1036h-245z" />
<glyph unicode="&#xe0;" horiz-adv-x="1202" d="M82 311v4q0 170 121 259.5t317 89.5q158 0 299 -46v27q0 113 -68.5 172.5t-197.5 59.5q-147 0 -309 -68l-68 199q201 90 412 90q236 0 355.5 -119t119.5 -338v-641h-246v133q-131 -156 -350 -156q-162 0 -273.5 89.5t-111.5 244.5zM276 1454l226 100l217 -335h-193z M328 324q0 -74 59 -117t150 -43q125 0 205.5 63.5t80.5 163.5v68q-111 43 -248 43q-117 0 -182 -46t-65 -128v-4z" />
<glyph unicode="&#xe1;" horiz-adv-x="1202" d="M82 311v4q0 170 121 259.5t317 89.5q158 0 299 -46v27q0 113 -68.5 172.5t-197.5 59.5q-147 0 -309 -68l-68 199q201 90 412 90q236 0 355.5 -119t119.5 -338v-641h-246v133q-131 -156 -350 -156q-162 0 -273.5 89.5t-111.5 244.5zM328 324q0 -74 59 -117t150 -43 q125 0 205.5 63.5t80.5 163.5v68q-111 43 -248 43q-117 0 -182 -46t-65 -128v-4zM481 1219l217 335l226 -100l-250 -235h-193z" />
<glyph unicode="&#xe2;" horiz-adv-x="1202" d="M82 311v4q0 170 121 259.5t317 89.5q158 0 299 -46v27q0 113 -68.5 172.5t-197.5 59.5q-147 0 -309 -68l-68 199q201 90 412 90q236 0 355.5 -119t119.5 -338v-641h-246v133q-131 -156 -350 -156q-162 0 -273.5 89.5t-111.5 244.5zM248 1219l237 299h230l237 -299h-196 l-158 137l-158 -137h-192zM328 324q0 -74 59 -117t150 -43q125 0 205.5 63.5t80.5 163.5v68q-111 43 -248 43q-117 0 -182 -46t-65 -128v-4z" />
<glyph unicode="&#xe3;" horiz-adv-x="1202" d="M82 311v4q0 170 121 259.5t317 89.5q158 0 299 -46v27q0 113 -68.5 172.5t-197.5 59.5q-147 0 -309 -68l-68 199q201 90 412 90q236 0 355.5 -119t119.5 -338v-641h-246v133q-131 -156 -350 -156q-162 0 -273.5 89.5t-111.5 244.5zM215 1239q35 131 87 193.5t142 62.5 q61 0 162 -41t133 -41q43 0 65.5 22.5t47.5 80.5l137 -43q-35 -131 -87 -192.5t-142 -61.5q-61 0 -161.5 40.5t-133.5 40.5q-43 0 -65.5 -22.5t-47.5 -79.5zM328 324q0 -74 59 -117t150 -43q125 0 205.5 63.5t80.5 163.5v68q-111 43 -248 43q-117 0 -182 -46t-65 -128v-4z " />
<glyph unicode="&#xe4;" horiz-adv-x="1202" d="M82 311v4q0 170 121 259.5t317 89.5q158 0 299 -46v27q0 113 -68.5 172.5t-197.5 59.5q-147 0 -309 -68l-68 199q201 90 412 90q236 0 355.5 -119t119.5 -338v-641h-246v133q-131 -156 -350 -156q-162 0 -273.5 89.5t-111.5 244.5zM270 1219v241h252v-241h-252zM328 324 q0 -74 59 -117t150 -43q125 0 205.5 63.5t80.5 163.5v68q-111 43 -248 43q-117 0 -182 -46t-65 -128v-4zM678 1219v241h252v-241h-252z" />
<glyph unicode="&#xe5;" horiz-adv-x="1202" d="M82 311v4q0 170 121 259.5t317 89.5q158 0 299 -46v27q0 113 -68.5 172.5t-197.5 59.5q-147 0 -309 -68l-68 199q201 90 412 90q236 0 355.5 -119t119.5 -338v-641h-246v133q-131 -156 -350 -156q-162 0 -273.5 89.5t-111.5 244.5zM328 324q0 -74 59 -117t150 -43 q125 0 205.5 63.5t80.5 163.5v68q-111 43 -248 43q-117 0 -182 -46t-65 -128v-4zM367 1440q0 92 70.5 158.5t162.5 66.5t163 -66.5t71 -158.5t-71 -159t-163 -67t-162.5 67t-70.5 159zM473 1440q0 -51 38 -89t89 -38t89 38t38 89t-38 89t-89 38t-89 -38t-38 -89z" />
<glyph unicode="&#xe6;" horiz-adv-x="1949" d="M82 317q0 168 121 257.5t317 89.5q158 0 299 -46v27q0 113 -68.5 172.5t-197.5 59.5q-147 0 -309 -68l-68 199q201 90 406 90q279 0 381 -178q141 184 378 184q244 0 378 -167t134 -417q0 -43 -2 -67h-794q20 -129 104 -202t205 -73q162 0 295 129l145 -129 q-172 -203 -444 -203q-260 1 -418 185q-219 -182 -452 -183q-186 0 -298 89.5t-112 250.5zM328 328q0 -78 59 -121t150 -43q172 0 317 135q-33 82 -41 166q-104 37 -238 37q-117 0 -182 -46t-65 -128zM1053 616h557q-12 125 -84 205t-191 80q-113 0 -189.5 -79t-92.5 -206z " />
<glyph unicode="&#xe7;" horiz-adv-x="1169" d="M96 537q0 236 161 401.5t400 165.5q262 0 433 -186l-154 -166q-129 135 -281 135q-133 0 -222 -100.5t-89 -245.5q0 -147 91 -249t233 -102q150 0 280 136l150 -148q-84 -92 -177.5 -143t-222.5 -58l-133 -315l-217 90l164 242q-184 47 -300 196.5t-116 346.5z" />
<glyph unicode="&#xe8;" horiz-adv-x="1236" d="M96 539q0 238 149.5 401.5t379.5 163.5q248 0 383 -167t135 -417q0 -18 -4 -67h-795q20 -129 104 -202t207 -73q160 0 293 129l146 -129q-168 -203 -443 -203q-238 0 -396.5 158t-158.5 406zM285 1454l225 100l217 -335h-192zM342 616h555q-12 125 -84 205t-190 80 q-113 0 -189 -79t-92 -206z" />
<glyph unicode="&#xe9;" horiz-adv-x="1236" d="M96 539q0 238 149.5 401.5t379.5 163.5q248 0 383 -167t135 -417q0 -18 -4 -67h-795q20 -129 104 -202t207 -73q160 0 293 129l146 -129q-168 -203 -443 -203q-238 0 -396.5 158t-158.5 406zM342 616h555q-12 125 -84 205t-190 80q-113 0 -189 -79t-92 -206zM510 1219 l217 335l225 -100l-250 -235h-192z" />
<glyph unicode="&#xea;" horiz-adv-x="1236" d="M96 539q0 238 149.5 401.5t379.5 163.5q248 0 383 -167t135 -417q0 -18 -4 -67h-795q20 -129 104 -202t207 -73q160 0 293 129l146 -129q-168 -203 -443 -203q-238 0 -396.5 158t-158.5 406zM268 1219l238 299h229l238 -299h-197l-158 137l-157 -137h-193zM342 616h555 q-12 125 -84 205t-190 80q-113 0 -189 -79t-92 -206z" />
<glyph unicode="&#xeb;" horiz-adv-x="1236" d="M96 539q0 238 149.5 401.5t379.5 163.5q248 0 383 -167t135 -417q0 -18 -4 -67h-795q20 -129 104 -202t207 -73q160 0 293 129l146 -129q-168 -203 -443 -203q-238 0 -396.5 158t-158.5 406zM291 1219v241h252v-241h-252zM342 616h555q-12 125 -84 205t-190 80 q-113 0 -189 -79t-92 -206zM698 1219v241h252v-241h-252z" />
<glyph unicode="&#xec;" horiz-adv-x="585" d="M-43 1454l225 100l217 -335h-192zM170 0v1081h248v-1081h-248z" />
<glyph unicode="&#xed;" horiz-adv-x="585" d="M170 0v1081h248v-1081h-248zM186 1219l217 335l226 -100l-250 -235h-193z" />
<glyph unicode="&#xee;" horiz-adv-x="585" d="M170 0v1081h248v-1081h-248zM170 1219l238 299h229l237 -299h-196l-158 137l-158 -137h-192z" />
<glyph unicode="&#xef;" horiz-adv-x="585" d="M-37 1219v241h252v-241h-252zM170 0v1081h248v-1081h-248zM371 1219v241h252v-241h-252z" />
<glyph unicode="&#xf0;" horiz-adv-x="1314" d="M96 510q0 215 136.5 350t338.5 135q145 0 285 -84l-215 293l-244 -108l-98 129l248 108l-119 162h285l49 -72l203 88l96 -129l-209 -90l182 -264q94 -135 137 -249.5t43 -250.5q0 -231 -154.5 -392t-412.5 -161q-236 0 -393.5 156t-157.5 379zM340 504q0 -131 90 -224.5 t227 -93.5q139 0 226.5 92.5t87.5 225.5q0 131 -90 220t-232 89q-139 0 -224 -87t-85 -222z" />
<glyph unicode="&#xf1;" horiz-adv-x="1269" d="M156 0v1081h247v-168q129 190 338 191q180 0 282.5 -112.5t102.5 -303.5v-688h-247v614q0 127 -60.5 196t-171.5 69q-109 0 -176.5 -72t-67.5 -197v-610h-247zM256 1239q35 131 87 193.5t142 62.5q61 0 162 -41t133 -41q43 0 65.5 22.5t47.5 80.5l137 -43 q-35 -131 -87 -192.5t-142 -61.5q-61 0 -161.5 40.5t-133.5 40.5q-43 0 -65.5 -22.5t-47.5 -79.5z" />
<glyph unicode="&#xf2;" horiz-adv-x="1345" d="M96 537q0 236 166 401.5t412 165.5t410.5 -164t164.5 -399.5t-165.5 -400.5t-413.5 -165q-246 0 -410 164t-164 398zM326 1454l225 100l217 -335h-193zM344 540.5q0 -147.5 93 -249t237 -101.5q147 0 237 99.5t90 247t-94 249t-237 101.5q-145 0 -235.5 -99.5t-90.5 -247 z" />
<glyph unicode="&#xf3;" horiz-adv-x="1345" d="M96 537q0 236 166 401.5t412 165.5t410.5 -164t164.5 -399.5t-165.5 -400.5t-413.5 -165q-246 0 -410 164t-164 398zM344 540.5q0 -147.5 93 -249t237 -101.5q147 0 237 99.5t90 247t-94 249t-237 101.5q-145 0 -235.5 -99.5t-90.5 -247zM575 1219l218 335l225 -100 l-250 -235h-193z" />
<glyph unicode="&#xf4;" horiz-adv-x="1345" d="M96 537q0 236 166 401.5t412 165.5t410.5 -164t164.5 -399.5t-165.5 -400.5t-413.5 -165q-246 0 -410 164t-164 398zM319 1219l238 299h229l238 -299h-197l-157 137l-158 -137h-193zM344 540.5q0 -147.5 93 -249t237 -101.5q147 0 237 99.5t90 247t-94 249t-237 101.5 q-145 0 -235.5 -99.5t-90.5 -247z" />
<glyph unicode="&#xf5;" horiz-adv-x="1345" d="M96 537q0 236 166 401.5t412 165.5t410.5 -164t164.5 -399.5t-165.5 -400.5t-413.5 -165q-246 0 -410 164t-164 398zM285 1239q35 131 87 193.5t142 62.5q61 0 161.5 -41t133.5 -41q43 0 65.5 22.5t47.5 80.5l137 -43q-35 -131 -87 -192.5t-143 -61.5q-61 0 -161.5 40.5 t-132.5 40.5q-43 0 -66 -22.5t-47 -79.5zM344 540.5q0 -147.5 93 -249t237 -101.5q147 0 237 99.5t90 247t-94 249t-237 101.5q-145 0 -235.5 -99.5t-90.5 -247z" />
<glyph unicode="&#xf6;" horiz-adv-x="1345" d="M96 537q0 236 166 401.5t412 165.5t410.5 -164t164.5 -399.5t-165.5 -400.5t-413.5 -165q-246 0 -410 164t-164 398zM342 1219v241h252v-241h-252zM344 540.5q0 -147.5 93 -249t237 -101.5q147 0 237 99.5t90 247t-94 249t-237 101.5q-145 0 -235.5 -99.5t-90.5 -247z M750 1219v241h251v-241h-251z" />
<glyph unicode="&#xf8;" horiz-adv-x="1345" d="M66 -10l163 182q-133 156 -133 365q0 236 166 401.5t412 165.5q172 0 309 -88l72 78h225l-166 -187q135 -153 135 -366q0 -236 -165.5 -401t-413.5 -165q-170 0 -310 88l-69 -73h-225zM338 541q0 -104 51 -189l449 492q-72 49 -168 49q-147 0 -239.5 -101.5t-92.5 -250.5 zM510 233q76 -49 164 -49q147 0 240.5 101.5t93.5 251.5q0 106 -52 190z" />
<glyph unicode="&#xf9;" horiz-adv-x="1269" d="M143 393v688h248v-614q0 -127 60.5 -195.5t171.5 -68.5q109 0 176 71.5t67 196.5v610h248v-1081h-248v168q-129 -190 -338 -191q-180 0 -282.5 113t-102.5 303zM313 1450l226 100l217 -336h-193z" />
<glyph unicode="&#xfa;" horiz-adv-x="1269" d="M143 393v688h248v-614q0 -127 60.5 -195.5t171.5 -68.5q109 0 176 71.5t67 196.5v610h248v-1081h-248v168q-129 -190 -338 -191q-180 0 -282.5 113t-102.5 303zM510 1214l217 336l225 -100l-250 -236h-192z" />
<glyph unicode="&#xfb;" horiz-adv-x="1269" d="M143 393v688h248v-614q0 -127 60.5 -195.5t171.5 -68.5q109 0 176 71.5t67 196.5v610h248v-1081h-248v168q-129 -190 -338 -191q-180 0 -282.5 113t-102.5 303zM283 1219l237 299h230l237 -299h-196l-158 137l-158 -137h-192z" />
<glyph unicode="&#xfc;" horiz-adv-x="1269" d="M143 393v688h248v-614q0 -127 60.5 -195.5t171.5 -68.5q109 0 176 71.5t67 196.5v610h248v-1081h-248v168q-129 -190 -338 -191q-180 0 -282.5 113t-102.5 303zM305 1219v241h252v-241h-252zM713 1219v241h252v-241h-252z" />
<glyph unicode="&#xfd;" horiz-adv-x="1220" d="M53 1081h264l308 -802l280 802h258l-430 -1112q-66 -166 -145.5 -234.5t-210.5 -68.5q-135 0 -256 66l84 184q76 -41 145 -41q53 0 88 27.5t66 97.5zM500 1214l217 336l225 -100l-250 -236h-192z" />
<glyph unicode="&#xfe;" d="M156 -328v1823h247v-594q143 203 367 203q205 0 354.5 -152.5t149.5 -410.5t-149.5 -411t-354.5 -153q-223 0 -367 191v-496h-247zM397 540.5q0 -153.5 92.5 -250.5t223.5 -97t220 95t89 253q0 156 -90 252t-219 96q-131 0 -223.5 -97.5t-92.5 -251z" />
<glyph unicode="&#xff;" horiz-adv-x="1220" d="M53 1081h264l308 -802l280 802h258l-430 -1112q-66 -166 -145.5 -234.5t-210.5 -68.5q-135 0 -256 66l84 184q76 -41 145 -41q53 0 88 27.5t66 97.5zM281 1219v241h251v-241h-251zM688 1219v241h252v-241h-252z" />
<glyph unicode="&#x152;" horiz-adv-x="2248" d="M121 715q0 307 214 513t548 206h1241v-226h-766v-372h674v-226h-674v-385h776v-225h-1251q-334 0 -548 204t-214 511zM385 719q0 -215 137 -352.5t361 -137.5h223v975h-223q-223 0 -360.5 -136t-137.5 -349z" />
<glyph unicode="&#x153;" horiz-adv-x="2129" d="M96 537q0 236 166 401.5t406 165.5q137 0 252.5 -62.5t187.5 -169.5q66 106 174.5 169t239.5 63q242 0 377 -168t135 -416q0 -18 -4 -67h-795q20 -129 105 -202t206 -73q162 0 295 129l146 -129q-172 -203 -443 -203q-141 0 -256.5 61.5t-183.5 172.5 q-72 -106 -189.5 -170t-257.5 -64q-233 0 -397 165t-164 397zM344 541q0 -145 92 -248t232 -103q143 0 231 100t88 247q0 145 -92 247.5t-231 102.5q-143 0 -231.5 -99.5t-88.5 -246.5zM1233 616h557q-14 127 -85 206t-189 79q-113 0 -190 -79t-93 -206z" />
<glyph unicode="&#x178;" horiz-adv-x="1466" d="M37 1434h297l401 -635l406 635h289l-570 -863v-571h-254v565zM403 1550v242h252v-242h-252zM811 1550v242h252v-242h-252z" />
<glyph unicode="&#x2c6;" horiz-adv-x="1024" d="M160 1219l237 299h230l237 -299h-196l-158 137l-158 -137h-192z" />
<glyph unicode="&#x2dc;" horiz-adv-x="1024" d="M125 1239q35 131 87 193.5t142 62.5q61 0 161.5 -41t133.5 -41q43 0 65.5 22.5t47.5 80.5l137 -43q-35 -131 -87 -192.5t-142 -61.5q-61 0 -161.5 40.5t-133.5 40.5q-43 0 -65.5 -22.5t-47.5 -79.5z" />
<glyph unicode="&#x2000;" horiz-adv-x="944" />
<glyph unicode="&#x2001;" horiz-adv-x="1888" />
<glyph unicode="&#x2002;" horiz-adv-x="944" />
<glyph unicode="&#x2003;" horiz-adv-x="1888" />
<glyph unicode="&#x2004;" horiz-adv-x="629" />
<glyph unicode="&#x2005;" horiz-adv-x="472" />
<glyph unicode="&#x2006;" horiz-adv-x="314" />
<glyph unicode="&#x2007;" horiz-adv-x="314" />
<glyph unicode="&#x2008;" horiz-adv-x="236" />
<glyph unicode="&#x2009;" horiz-adv-x="377" />
<glyph unicode="&#x200a;" horiz-adv-x="104" />
<glyph unicode="&#x2010;" horiz-adv-x="835" d="M115 506v244h606v-244h-606z" />
<glyph unicode="&#x2011;" horiz-adv-x="835" d="M115 506v244h606v-244h-606z" />
<glyph unicode="&#x2012;" horiz-adv-x="835" d="M115 506v244h606v-244h-606z" />
<glyph unicode="&#x2013;" horiz-adv-x="1081" d="M115 510v235h852v-235h-852z" />
<glyph unicode="&#x2014;" horiz-adv-x="1839" d="M115 510v235h1609v-235h-1609z" />
<glyph unicode="&#x2018;" horiz-adv-x="550" d="M129 864v240q0 166 78 247t237 93l27 -107q-188 -35 -174 -190h104v-283h-272z" />
<glyph unicode="&#x2019;" horiz-adv-x="550" d="M80 961q188 35 174 192h-104v281h272v-240q0 -166 -78 -247t-238 -93z" />
<glyph unicode="&#x201a;" horiz-adv-x="550" d="M70 -193q188 37 174 193h-105v281h273v-238q0 -166 -78 -247t-238 -93z" />
<glyph unicode="&#x201c;" horiz-adv-x="1026" d="M129 864v240q0 166 78 247t237 93l27 -107q-188 -35 -174 -190h104v-283h-272zM604 864v240q0 166 78 247t238 93l26 -107q-188 -35 -176 -190h107v-283h-273z" />
<glyph unicode="&#x201d;" horiz-adv-x="1026" d="M80 961q188 35 174 192h-104v281h272v-240q0 -166 -78 -247t-238 -93zM555 961q188 35 174 192h-104v281h272v-240q0 -166 -78 -247t-237 -93z" />
<glyph unicode="&#x201e;" horiz-adv-x="1026" d="M70 -193q188 37 174 193h-105v281h273v-238q0 -166 -78 -247t-238 -93zM545 -193q188 37 174 193h-105v281h273v-238q0 -166 -78 -247t-238 -93z" />
<glyph unicode="&#x2022;" horiz-adv-x="1005" d="M213 721q0 119 85 204t204 85q121 0 206 -85t85 -204t-85 -204t-206 -85q-119 0 -204 85t-85 204z" />
<glyph unicode="&#x2026;" horiz-adv-x="1622" d="M139 0v274h267v-274h-267zM678 0v274h266v-274h-266zM1217 0v274h266v-274h-266z" />
<glyph unicode="&#x202f;" horiz-adv-x="377" />
<glyph unicode="&#x2039;" horiz-adv-x="724" d="M90 532v17l340 450l188 -96l-270 -360l270 -363l-188 -96z" />
<glyph unicode="&#x203a;" horiz-adv-x="724" d="M109 178l270 361l-270 362l188 98l338 -450v-17l-338 -448z" />
<glyph unicode="&#x205f;" horiz-adv-x="472" />
<glyph unicode="&#x2122;" horiz-adv-x="1413" d="M53 1323v111h510v-111h-194v-520h-121v520h-195zM698 803v631h129l191 -299l190 299h125v-631h-116v448l-195 -303h-12l-195 303v-448h-117z" />
<glyph unicode="&#x25fc;" horiz-adv-x="1085" d="M0 0v1085h1085v-1085h-1085z" />
<glyph unicode="&#xfb01;" horiz-adv-x="1355" d="M74 868v207h137v78q0 354 332 354q104 0 200 -28v-209q-80 27 -145 26q-143 0 -143 -163v-60h286v-205h-282v-868h-248v868h-137zM930 1247v236h266v-236h-266zM940 0v1081h248v-1081h-248z" />
<glyph unicode="&#xfb02;" horiz-adv-x="1355" d="M74 868v207h137v78q0 354 332 354q104 0 200 -28v-209q-80 27 -145 26q-143 0 -143 -163v-60h286v-205h-282v-868h-248v868h-137zM940 0v1495h248v-1495h-248z" />
</font>
</defs>
</svg>
