<?xml version="1.0" standalone="no"?>
<!DOCTYPE svg PUBLIC "-//W3C//DTD SVG 1.1//EN" "http://www.w3.org/Graphics/SVG/1.1/DTD/svg11.dtd" >
<svg xmlns="http://www.w3.org/2000/svg" xmlns:xlink="http://www.w3.org/1999/xlink" version="1.1">
<metadata>
Created by FontForge 20201107 at Mon Jan 18 22:15:01 1993
 By 
Copyright 1990-1993 Bitstream Inc.  All rights reserved.
</metadata>
<defs>
<font id="Modern20BT-ItalicB" horiz-adv-x="1024" >
  <font-face 
    font-family="Modern20 BT"
    font-weight="400"
    font-style="italic"
    font-stretch="normal"
    units-per-em="2048"
    panose-1="2 7 7 4 8 5 5 9 3 4"
    ascent="1638"
    descent="-410"
    x-height="887"
    cap-height="1362"
    bbox="-504 -483 2224 1933"
    underline-thickness="109"
    underline-position="-250"
    slope="-15"
    unicode-range="U+0020-F002"
  />
<missing-glyph horiz-adv-x="1229" 
d="M102 -362v1806h1024v-1806h-1024zM217 -248h795v1577h-795v-1577z" />
    <glyph glyph-name=".notdef" horiz-adv-x="1229" 
d="M102 -362v1806h1024v-1806h-1024zM217 -248h795v1577h-795v-1577z" />
    <glyph glyph-name=".null" horiz-adv-x="0" 
 />
    <glyph glyph-name="nonmarkingreturn" horiz-adv-x="512" 
 />
    <glyph glyph-name="space" unicode=" " horiz-adv-x="512" 
 />
    <glyph glyph-name="exclam" unicode="!" horiz-adv-x="631" 
d="M184 317q67 218 92 474.5t31 281.5q22 93 82 168.5t103 75.5q32 0 50.5 -44t18.5 -124q0 -95 -145 -359t-211 -479zM18 100q0 52 34.5 87.5t82.5 35.5q50 0 83.5 -35.5t33.5 -87.5t-33.5 -86t-83.5 -34q-48 0 -82.5 34.5t-34.5 85.5z" />
    <glyph glyph-name="quotedbl" unicode="&#x22;" horiz-adv-x="686" 
d="M526 860h-34l-70 459q-1 7 -1.5 14.5t-0.5 22.5q0 51 22.5 78.5t65.5 27.5q42 0 66 -27t24 -75q0 -16 -0.5 -24.5t-1.5 -16.5zM195 860h-35l-70 459q-2 17 -3 26t-1 15q0 48 24 75t66 27q44 0 67 -27.5t23 -78.5q0 -16 -0.5 -23.5t-1.5 -14.5z" />
    <glyph glyph-name="numbersign" unicode="#" horiz-adv-x="1575" 
d="M702 864l-98 -276h283l96 276h-281zM760 1458h155l-161 -454h276l162 454h156l-162 -454h301l-49 -140h-301l-97 -276h320l-49 -139h-320l-162 -453h-155l162 453h-279l-162 -453h-153l159 453h-313l51 139h312l98 276h-336l51 140h334z" />
    <glyph glyph-name="dollar" unicode="$" 
d="M504 784l125 498h-11q-132 0 -220.5 -75t-88.5 -185q0 -75 46.5 -132t148.5 -106zM367 14h12q146 0 245 88.5t99 212.5q0 78 -50.5 138t-164.5 116zM246 -223l53 198q-134 26 -208.5 104t-74.5 191q0 79 40.5 132t97.5 53q50 0 80 -32.5t30 -86.5q0 -45 -26.5 -75
t-67.5 -30q-27 0 -52.5 12.5t-51.5 39.5q0 -4 -1.5 -12.5t-1.5 -12.5q0 -94 66 -157.5t182 -80.5l146 576q-115 47 -177.5 138t-62.5 210q0 162 116.5 271.5t293.5 109.5h12l37 170l59 -12l-41 -162q121 -18 192.5 -91.5t71.5 -176.5q0 -75 -31 -118.5t-85 -43.5
q-47 0 -76 30t-29 78q0 49 25 79t65 30q17 0 34 -4t40 -12q-16 78 -71.5 125t-144.5 59l-130 -518q136 -66 200 -155t64 -212q0 -182 -124 -301t-318 -119h-21l-49 -209z" />
    <glyph glyph-name="percent" unicode="%" horiz-adv-x="1583" 
d="M1057 2q52 0 88 34.5t67 115.5q46 115 74.5 241.5t28.5 198.5q0 56 -24.5 83t-76.5 27q-41 0 -74.5 -26t-62.5 -80q-51 -95 -91 -243t-40 -232q0 -56 29.5 -87.5t81.5 -31.5zM1208 729q109 0 172.5 -79t63.5 -216q0 -182 -114.5 -322.5t-264.5 -140.5q-104 0 -174 84.5
t-70 214.5q0 176 122.5 317.5t264.5 141.5zM346 -43h-76l920 1366h76zM350 594q52 0 88 35t68 116q46 117 75 244t29 197q0 56 -25 83t-77 27q-41 0 -75 -26t-64 -82q-50 -95 -89.5 -242.5t-39.5 -230.5q0 -57 29.5 -89t80.5 -32zM367 565q-110 0 -181 83.5t-71 215.5
q0 177 121.5 318t265.5 141q109 0 171 -77.5t62 -215.5q0 -180 -113.5 -322.5t-254.5 -142.5z" />
    <glyph glyph-name="ampersand" unicode="&#x26;" horiz-adv-x="1493" 
d="M836 953q115 31 177 106t62 182q0 55 -22.5 83t-67.5 28q-75 0 -109.5 -91t-39.5 -308zM622 233q-2 43 -3 90.5t-1 133.5q1 95 4.5 195t9.5 204q-166 -11 -263 -180t-97 -449q0 -105 29 -156t90 -51q81 0 209 182q15 21 22 31zM629 193q-97 -139 -152 -174t-133 -35
q-123 0 -196.5 81.5t-73.5 219.5q0 216 155.5 385.5t405.5 216.5q24 212 128 350.5t230 138.5q70 0 117 -49.5t47 -122.5q0 -85 -80.5 -156t-242.5 -128q-4 -68 -5.5 -147.5t-1.5 -170.5v-125q34 55 90 153q173 306 302 306q65 0 107 -44t42 -112q0 -58 -31 -94.5t-80 -36.5
q-38 0 -62 24.5t-24 63.5q0 73 58.5 99t58.5 30q0 17 -19.5 30t-45.5 13q-116 0 -281 -292q-68 -120 -111 -189q1 -5 1 -16q6 -371 92 -371q72 0 146.5 99t117.5 261l26 -6q-53 -195 -139.5 -294t-204.5 -99q-92 0 -157 51t-84 140z" />
    <glyph glyph-name="quotesingle" unicode="'" horiz-adv-x="352" 
d="M195 860h-35l-70 459q0 2 -1 8q-3 20 -3 29q0 50 23.5 78t66.5 28q42 0 66 -27t24 -75q0 -7 -0.5 -15t-3.5 -27z" />
    <glyph glyph-name="parenleft" unicode="(" horiz-adv-x="782" 
d="M408 -395q-103 175 -158 359t-55 349q0 336 187.5 637.5t512.5 483.5l14 -23q-144 -102 -241.5 -231.5t-167.5 -315.5q-82 -217 -130 -441t-48 -374q0 -121 26 -223t82 -205z" />
    <glyph glyph-name="parenright" unicode=")" horiz-adv-x="782" 
d="M295 1434q102 -175 156.5 -357.5t54.5 -349.5q0 -336 -187.5 -638t-513.5 -484l-14 22q145 103 243 233.5t169 315.5q82 219 129 443t47 389q0 107 -26.5 207.5t-82.5 203.5z" />
    <glyph glyph-name="asterisk" unicode="*" horiz-adv-x="1090" 
d="M543 989q-57 38 -158 81q-135 57 -135 130q0 28 16.5 41.5t48.5 13.5q65 0 129 -100.5t115 -146.5q1 17 1.5 33t0.5 30q0 44 -12 109.5t-12 87.5q0 49 27.5 85t60.5 36q25 0 44 -28.5t19 -68.5q0 -41 -46.5 -131.5t-59.5 -156.5q64 28 145 97.5t131 69.5q32 0 55 -16.5
t23 -38.5q0 -88 -185 -109q-104 -11 -163 -26q58 -38 160 -80q135 -56 135 -129q0 -29 -16.5 -43t-49.5 -14q-63 0 -127 101.5t-114 145.5q-2 -10 -2.5 -21t-0.5 -32q0 -51 11.5 -119t11.5 -88q0 -50 -27.5 -86t-60.5 -36q-24 0 -44 29.5t-20 68.5q0 35 46.5 127t62.5 162
q-64 -27 -146 -97.5t-133 -70.5q-30 0 -53.5 17t-23.5 40q0 86 181 107q105 12 165 26z" />
    <glyph glyph-name="plus" unicode="+" horiz-adv-x="1706" 
d="M782 1221h142v-541h528v-139h-528v-541h-142v541h-528v139h528v541z" />
    <glyph glyph-name="comma" unicode="," horiz-adv-x="508" 
d="M-4 -352q89 66 133.5 156t44.5 202q-16 -11 -29.5 -15.5t-29.5 -4.5q-48 0 -77.5 30t-29.5 80q0 56 31 87.5t86 31.5q58 0 94.5 -47.5t36.5 -124.5q0 -110 -64.5 -220t-179.5 -194z" />
    <glyph glyph-name="hyphen" unicode="-" horiz-adv-x="584" 
d="M18 518h455l-35 -143h-456z" />
    <glyph glyph-name="period" unicode="." horiz-adv-x="508" 
d="M29 102q0 52 33.5 89.5t80.5 37.5q48 0 82.5 -37.5t34.5 -89.5q0 -51 -35 -88t-82 -37q-45 0 -79.5 37.5t-34.5 87.5z" />
    <glyph glyph-name="slash" unicode="/" horiz-adv-x="653" 
d="M614 1360h74l-747 -1550h-74z" />
    <glyph glyph-name="zero" unicode="0" 
d="M801 1122q0 89 -32 129.5t-101 40.5q-73 0 -131.5 -59.5t-110.5 -188.5q-96 -237 -154.5 -480t-58.5 -371q0 -90 40.5 -139.5t113.5 -49.5q71 0 127 65.5t112 217.5q87 232 141 476t54 359zM369 -29q-144 0 -234 128.5t-90 338.5q0 159 56 320.5t159 300.5
q96 127 202.5 196.5t205.5 69.5q141 0 217 -120t76 -345q0 -150 -49.5 -307.5t-141.5 -298.5q-87 -133 -194 -208t-207 -75z" />
    <glyph glyph-name="one" unicode="1" 
d="M45 -6v33q18 1 47 2q177 9 203 100l254 893q7 22 10.5 41.5t3.5 34.5q0 24 -19.5 32.5t-95.5 10.5l-165 4v37h41q152 0 259 38t189 119l47 -8l-2 -8q-317 -1137 -317 -1210q0 -71 193 -76h20v-33q-43 1 -113 2q-115 2 -149 2q-71 0 -162.5 -3t-243.5 -11z" />
    <glyph glyph-name="two" unicode="2" 
d="M797 385q-43 -191 -115 -288t-170 -97q-69 0 -190.5 85t-184.5 85q-36 0 -55 -12.5t-19 -36.5q0 -18 13.5 -47.5t13.5 -40.5q0 -17 -15.5 -25t-47.5 -8q-36 0 -49 9.5t-13 35.5q0 55 50 125t157 166q57 51 190.5 153.5t194.5 163.5q99 100 158 224t59 231q0 98 -53 154.5
t-146 56.5q-129 0 -227 -92.5t-98 -214.5q0 -29 5 -48t16 -32q3 0 11 2q16 2 21 2q39 0 64.5 -28t25.5 -70q0 -43 -26 -71t-66 -28q-59 0 -92 47t-33 129q0 174 125.5 306.5t296.5 132.5q154 0 253 -98.5t99 -251.5q0 -212 -460 -482q-54 -32 -82 -49
q-107 -63 -192.5 -134.5t-141.5 -145.5q48 8 77.5 11t53.5 3q66 0 144 -4t89 -4q195 0 248 39.5t84 150.5z" />
    <glyph glyph-name="three" unicode="3" 
d="M297 700q36 18 73 31.5t75 22.5q136 56 216 160t80 223q0 77 -41 121.5t-112 44.5q-77 0 -126.5 -43.5t-49.5 -110.5v-19l24 -15q58 -35 58 -81q0 -39 -29.5 -68.5t-71.5 -29.5q-48 0 -77 32t-29 85q0 108 99.5 196t229.5 88q135 0 224.5 -76.5t89.5 -187.5
q0 -106 -94 -182.5t-312 -145.5v-8q143 -39 223 -133.5t80 -222.5q0 -171 -143.5 -290.5t-347.5 -119.5q-153 0 -242.5 80.5t-89.5 214.5q0 83 42 135t108 52q44 0 71 -25t27 -66q0 -51 -40 -82.5t-120 -41.5q-4 -11 -6 -23.5t-2 -26.5q0 -80 57.5 -131t147.5 -51
q135 0 230 150t95 354q0 96 -40.5 147.5t-116.5 51.5q-19 0 -67 -24t-77 -36z" />
    <glyph glyph-name="four" unicode="4" 
d="M508 479l207 635q-192 -178 -350 -334.5t-291 -300.5h434zM467 381h-199q-42 0 -116.5 -2t-165.5 -6v65q253 268 569 573.5t336 325.5l72 -8q-34 -122 -73 -252t-85 -270l-111 -328h250l-24 -94h-258l-87 -276q-3 -10 -5.5 -20.5t-2.5 -14.5q0 -32 128 -37q66 -2 107 -4
l1 -33q-105 4 -193 6t-147 2q-46 0 -201 -4q-81 -3 -126 -4l-1 32q193 10 210.5 21.5t37.5 73.5z" />
    <glyph glyph-name="five" unicode="5" 
d="M170 692q74 150 149 319t154 359q92 -26 158 -38.5t112 -12.5q51 0 99.5 13t97.5 40l23 -22q-36 -102 -109.5 -150.5t-189.5 -48.5q-38 0 -89.5 7.5t-142.5 27.5l-145 -334q50 32 98 46.5t102 14.5q163 0 265 -116.5t102 -302.5q0 -219 -154.5 -371t-367.5 -152
q-140 0 -234 87.5t-94 213.5q0 80 39.5 132.5t95.5 52.5q48 0 77.5 -31t29.5 -80q0 -37 -18.5 -62.5t-52.5 -37.5q-4 -1 -12 -4q-81 -28 -81 -68q0 -59 63.5 -111.5t143.5 -52.5q77 0 140 51.5t118 159.5q52 103 81 214.5t29 205.5q0 111 -53.5 171t-152.5 60
q-86 0 -149 -48.5t-103 -145.5z" />
    <glyph glyph-name="six" unicode="6" 
d="M561 803q-144 0 -252 -162.5t-108 -378.5q0 -125 52 -195.5t144 -70.5q83 0 144 56.5t114 185.5q40 96 61 186.5t21 167.5q0 104 -44.5 157.5t-131.5 53.5zM289 662q69 94 137 133t158 39q142 0 241 -111t99 -272q0 -207 -149.5 -347.5t-373.5 -140.5
q-167 0 -265.5 113.5t-98.5 306.5q0 161 61 333.5t170 317.5q111 148 229 222.5t242 74.5q113 0 185.5 -68t72.5 -171q0 -62 -28 -98t-76 -36q-39 0 -65.5 25.5t-26.5 63.5q0 47 51 84.5t51 60.5q0 42 -49.5 74t-122.5 32q-153 0 -252.5 -140t-189.5 -496z" />
    <glyph glyph-name="seven" unicode="7" 
d="M139 877q44 103 85 219t81 252l35 -9l-66 -206l7 -3q126 115 190.5 155t114.5 40q44 0 72 -25t55 -98q17 -47 37 -63.5t55 -16.5q46 0 78 22.5t32 49.5q0 13 -15 45.5t-15 52.5q0 31 18 49.5t47 18.5q37 0 58.5 -23t21.5 -63q0 -58 -81 -154q-8 -10 -13 -16
q-146 -176 -222.5 -286t-121.5 -204q-74 -154 -99 -399q-6 -61 -10 -88q-13 -93 -41 -127.5t-84 -34.5q-53 0 -84.5 40.5t-31.5 109.5q0 114 121 304.5t501 641.5l-10 8q-56 -28 -101 -40.5t-87 -12.5q-43 0 -67 13.5t-52 60.5q-25 43 -51.5 61t-63.5 18q-71 0 -138 -76
t-128 -227z" />
    <glyph glyph-name="eight" unicode="8" 
d="M604 748q115 59 172.5 145t57.5 199q0 94 -51.5 145t-145.5 51q-109 0 -183.5 -67t-74.5 -162q0 -74 52 -146.5t173 -164.5zM446 621q-136 -61 -211 -157t-75 -210q0 -115 66.5 -183.5t179.5 -68.5q120 0 202 78t82 190q0 81 -51.5 157.5t-192.5 193.5zM420 645
q-94 91 -136 167.5t-42 154.5q0 141 117.5 247.5t275.5 106.5q140 0 229.5 -70.5t89.5 -177.5q0 -87 -72 -166.5t-249 -183.5q108 -90 153 -170t45 -178q0 -167 -123 -286.5t-302 -119.5q-162 0 -268.5 85t-106.5 210q0 111 91.5 201.5t297.5 179.5z" />
    <glyph glyph-name="nine" unicode="9" 
d="M453 489q140 0 247 162t107 379q0 124 -52.5 194t-144.5 70q-73 0 -134.5 -50t-110.5 -150q-48 -98 -76.5 -208.5t-28.5 -193.5q0 -98 49.5 -150.5t143.5 -52.5zM717 608l-10 2q-56 -75 -127 -114t-152 -39q-146 0 -247 109t-101 272q0 204 150 347.5t358 143.5
q174 0 279.5 -119t105.5 -317q0 -159 -69 -336.5t-187 -320.5q-107 -132 -217 -200.5t-213 -68.5q-124 0 -204.5 70t-80.5 170q0 53 30 87t77 34q42 0 69 -24.5t27 -61.5q0 -44 -50.5 -83t-50.5 -65q0 -36 49.5 -64t118.5 -28q151 0 257.5 145t187.5 461z" />
    <glyph glyph-name="colon" unicode=":" horiz-adv-x="555" 
d="M176 766q0 52 33.5 87.5t81.5 35.5q49 0 83 -35.5t34 -87.5t-34 -86.5t-83 -34.5q-48 0 -81.5 34.5t-33.5 86.5zM10 100q0 52 33.5 87.5t81.5 35.5q49 0 83 -35.5t34 -87.5t-34 -86t-83 -34q-48 0 -81.5 34.5t-33.5 85.5z" />
    <glyph glyph-name="semicolon" unicode=";" horiz-adv-x="555" 
d="M160 750q0 51 34 86.5t82 35.5q50 0 83.5 -35t33.5 -87q0 -53 -33.5 -88t-83.5 -35q-48 0 -82 35.5t-34 87.5zM-133 -326q115 51 179 125.5t79 175.5q-4 0 -12 -1t-11 -1q-58 0 -90 28.5t-32 80.5q0 50 31 81.5t79 31.5q56 0 94.5 -45t38.5 -111q0 -120 -94 -227.5
t-252 -163.5z" />
    <glyph glyph-name="less" unicode="&#x3c;" horiz-adv-x="1706" 
d="M1442 1159v-153l-969 -396l969 -393v-154l-1178 484v129z" />
    <glyph glyph-name="equal" unicode="=" horiz-adv-x="1706" 
d="M254 481h1198v-139h-1198v139zM254 879h1198v-140h-1198v140z" />
    <glyph glyph-name="greater" unicode="&#x3e;" horiz-adv-x="1706" 
d="M264 1159l1178 -483v-129l-1178 -484v154l971 393l-971 396v153z" />
    <glyph glyph-name="question" unicode="?" horiz-adv-x="764" 
d="M477 580q-34 -126 -91 -194.5t-126 -68.5q-44 0 -68 27.5t-24 77.5q0 138 167 309q51 52 73 78q66 82 112.5 208.5t46.5 205.5q0 42 -17.5 63t-53.5 21q-86 0 -154.5 -117t-101.5 -324l-31 4q38 230 117.5 350.5t193.5 120.5q86 0 137.5 -67t51.5 -180q0 -120 -61 -213.5
t-185 -165.5q-20 -12 -61 -33q-201 -106 -201 -252q0 -39 17.5 -60.5t49.5 -21.5q55 0 103.5 63.5t79.5 176.5zM84 92q0 49 32 83t77 34t76.5 -33.5t31.5 -83.5q0 -48 -31.5 -80t-76.5 -32q-44 0 -76.5 32.5t-32.5 79.5z" />
    <glyph glyph-name="at" unicode="@" horiz-adv-x="2019" 
d="M1186 332q-62 -105 -138 -156t-169 -51q-129 0 -206 92t-77 246q0 109 49.5 216t140.5 195q68 65 146 99.5t155 34.5q90 0 146 -48.5t76 -142.5l51 174h158l-172 -612l-4 -12q-15 -56 -15 -86q0 -51 23.5 -79t66.5 -28q33 0 80.5 20t89.5 52q119 90 179.5 228.5
t60.5 318.5q0 133 -52.5 245t-156.5 201q-90 77 -214 118.5t-267 41.5q-180 0 -335.5 -61.5t-275.5 -180.5q-126 -124 -190 -287t-64 -358q0 -182 57 -313t179 -234q109 -92 254 -141t307 -49q170 0 327 51.5t300 155.5l33 -41q-147 -110 -312.5 -166t-345.5 -56
q-189 0 -345.5 45.5t-274.5 135.5q-151 113 -230.5 276.5t-79.5 360.5q0 203 86.5 380.5t251.5 313.5q134 111 294.5 167t342.5 56q346 0 555 -188.5t209 -499.5q0 -159 -58.5 -298t-166.5 -237q-59 -52 -126 -80t-134 -28q-96 0 -149 53t-60 156zM1104 961
q-54 0 -98.5 -30.5t-90.5 -99.5q-71 -107 -113 -233.5t-42 -228.5q0 -86 39.5 -138.5t101.5 -52.5q65 0 122.5 43.5t111.5 132.5q55 93 88.5 204t33.5 198q0 92 -42 148.5t-111 56.5z" />
    <glyph glyph-name="A" unicode="A" horiz-adv-x="1346" 
d="M362 440l355 -6l18 527zM-162 0v32q81 2 141.5 27t104.5 74q98 111 347 458t525 769h48q-27 -353 -40.5 -668t-13.5 -563q0 -60 10.5 -72.5t224.5 -23.5l1 -33q-92 2 -178 3t-187 1q-99 0 -177.5 -1t-160.5 -3v33q36 2 91 4q128 6 131 70l10 282l-385 8l-102 -140
q-2 -3 -7 -10q-37 -53 -37 -97q0 -63 47 -90t158 -27v-33q-66 2 -129 3t-141 1q-79 0 -144.5 -1t-136.5 -3z" />
    <glyph glyph-name="B" unicode="B" horiz-adv-x="1493" 
d="M575 731q16 0 44 -1q86 -3 114 -3q205 0 321.5 98t116.5 265q0 115 -70 169t-220 54q-148 0 -172 -91q-4 -13 -6 -21zM563 692l-162 -582q-3 -9 -4.5 -18.5t-1.5 -17.5q0 -24 45.5 -32.5t186.5 -8.5q174 0 293.5 131.5t119.5 306.5q0 125 -75 174t-285 49q-21 0 -60 -1
t-57 -1zM-159 33q82 4 257 18l25 2q156 514 253 856t97 377q0 25 -153 33q-76 5 -123 8v33q153 -9 268.5 -13t206.5 -4q36 0 117 2.5t126 2.5q217 0 343 -89.5t126 -240.5q0 -132 -141 -215t-382 -92q202 -21 313.5 -106.5t111.5 -219.5q0 -163 -160 -274t-413 -111
q-93 0 -256.5 5t-233.5 5q-89 0 -183 -2.5t-199 -7.5v33z" />
    <glyph glyph-name="C" unicode="C" horiz-adv-x="1341" 
d="M1135 475q-68 -256 -202 -382t-339 -126q-219 0 -364.5 156.5t-145.5 392.5q0 165 70.5 320.5t210.5 298.5q120 123 250 191.5t241 68.5q102 0 177 -53.5t116 -155.5q52 40 93 92t73 119l31 -2l-179 -664l-20 5q3 54 4.5 93.5t1.5 63.5q0 230 -74.5 349.5t-218.5 119.5
q-102 0 -187.5 -72t-158.5 -219q-86 -173 -138 -376.5t-52 -358.5q0 -163 73.5 -248.5t214.5 -85.5q182 0 303.5 119t186.5 360z" />
    <glyph glyph-name="D" unicode="D" horiz-adv-x="1536" 
d="M727 1323q-119 -401 -295 -1158l-26 -114q61 -12 114.5 -18t97.5 -6q141 0 233.5 60.5t170.5 205.5q82 151 132 342.5t50 353.5q0 182 -81.5 264t-262.5 82q-33 0 -66 -3t-67 -9zM-117 -2v33q205 11 233 27t54 108q120 429 203.5 757t83.5 357q-1 44 -136 47
q-71 2 -116 4v33q49 -2 103.5 -3t152.5 -1q119 0 253 4t148 4q261 0 417.5 -156t156.5 -413q0 -197 -93 -368.5t-266 -293.5q-103 -74 -208.5 -108.5t-229.5 -34.5q-45 0 -183 6t-231 6q-58 0 -147 -2t-195 -6z" />
    <glyph glyph-name="E" unicode="E" horiz-adv-x="1493" 
d="M-145 0v33q55 4 121.5 12.5t150.5 22.5q142 458 239 809t97 389q0 32 -237 56q-31 3 -47 5l-1 33q123 -8 216.5 -11t174.5 -3q57 0 192.5 4t215.5 4q67 0 208 -5.5t216 -5.5h63l-141 -501h-18q0 15 1 44q3 68 3 89q0 228 -53.5 287t-311.5 59q-37 0 -81 -1.5t-126 -7.5
l-163 -587q30 -3 55.5 -4.5t46.5 -1.5q135 0 211.5 70t134.5 251l29 -4q-65 -189 -115.5 -377.5t-87.5 -377.5h-27q13 59 19 107t6 87q0 117 -56.5 165t-195.5 48h-31l-153 -561q-7 -21 -9 -30t-2 -15q0 -27 64.5 -37t249.5 -10q152 0 232.5 26t139.5 86q61 62 114.5 150
t103.5 207h18q-37 -142 -68 -266.5t-55 -229.5q-17 1 -48 2q-79 2 -108 2q-33 0 -145 -5t-190 -5q-71 0 -220 6t-227 6q-74 0 -166 -3t-239 -11z" />
    <glyph glyph-name="F" unicode="F" horiz-adv-x="1380" 
d="M675 -2q-99 5 -202.5 7.5t-216.5 2.5q-83 0 -184.5 -2t-214.5 -6v37q28 1 75 2q191 5 226 113q26 85 79 275.5t113 420.5q51 193 79 305t28 127q-1 36 -157 40q-77 3 -123 5l-1 35q89 -4 165 -6t130 -2q79 0 260 7t283 7q79 0 181 -3t124 -3q62 0 93.5 0.5t57.5 1.5
l-139 -500l-18 1q3 43 4.5 90t1.5 98q0 166 -61.5 223t-301.5 57q-182 0 -215.5 -10.5t-54.5 -95.5l-127 -488q30 -2 60.5 -3t72.5 -1q142 0 214 70.5t136 277.5l25 -6q-58 -175 -103 -347.5t-77 -344.5h-23q1 9 3 25q5 62 5 86q0 117 -59 164t-217 47h-43l-154 -584
q-8 -31 -10 -45q1 -31 140 -36q87 -3 147 -7z" />
    <glyph glyph-name="G" unicode="G" horiz-adv-x="1464" 
d="M1068 51q-4 74 -22.5 100.5t-66.5 26.5q-66 0 -163 -61q-11 -7 -17 -11q-91 -56 -162.5 -81t-140.5 -25q-181 0 -296.5 144t-115.5 372q0 167 71 322t210 290q127 126 263.5 189t280.5 63q110 0 170.5 -42.5t110.5 -155.5h14l178 155h17q-51 -141 -94.5 -289t-79.5 -305
h-19q1 11 1 28q3 71 3 99q0 236 -75 358t-222 122t-252 -94t-202 -316q-84 -191 -128 -367.5t-44 -320.5q0 -103 55.5 -161t155.5 -58q101 0 207.5 57t162.5 141q40 60 72.5 167t32.5 155q0 39 -181 43q-64 1 -102 3v31q34 0 75.5 -0.5t123.5 -0.5q118 0 252 3.5t309 10.5
v-32q-36 -3 -92 -6q-136 -8 -150 -60l-121 -494h-19z" />
    <glyph glyph-name="H" unicode="H" horiz-adv-x="1688" 
d="M-112 0l-1 33q191 8 219 23.5t56 107.5q124 411 214.5 747t90.5 363q0 42 -142 48q-67 2 -112 6v34q35 -1 99 -3q207 -5 282 -5q97 0 337 6q41 1 62 2v-35q-17 0 -48 -1q-170 -5 -193 -30q-19 -20 -43 -108q-3 -11 -4 -16l-14 -49q-70 -246 -109 -396h557l25 92
q116 428 116 461q0 38 -107 44q-37 2 -58 3l-1 35q26 -1 74 -2q196 -6 268 -6q66 0 256 5q70 2 109 3v-35q-127 -2 -171.5 -6t-62.5 -12q-28 -14 -54 -109q-6 -21 -9 -32q-120 -417 -202.5 -736.5t-82.5 -353.5t175 -42q45 -2 70 -3v-33q-134 3 -237 4.5t-174 1.5
q-48 0 -137 -1.5t-221 -4.5v33q19 1 53 2q165 6 184 35q23 34 132 444q27 101 42 158h-559l-27 -95q-128 -452 -128 -495q0 -42 148 -47q36 -1 56 -2v-33q-121 3 -210.5 4.5t-149.5 1.5q-65 0 -157 -1.5t-211 -4.5z" />
    <glyph glyph-name="I" unicode="I" horiz-adv-x="887" 
d="M203 1362q50 -1 142 -4q182 -4 239 -4q106 0 367 7q33 0 50 1v-35q-34 -1 -89 -1q-169 -3 -197 -101q-122 -427 -208.5 -771t-86.5 -376q0 -36 178 -42q53 -2 84 -4v-31q-139 2 -246.5 3.5t-181.5 1.5q-48 0 -137 -1.5t-221 -4.5v33h8q189 6 217 24q19 12 45 104
q7 22 10 33q116 400 198.5 725.5t82.5 356.5q0 41 -135 46q-71 2 -119 5v35z" />
    <glyph glyph-name="J" unicode="J" horiz-adv-x="1098" 
d="M723 1307q-62 7 -132 12.5t-161 10.5v31q121 -6 255 -9.5t286 -3.5q99 0 150.5 0.5t94.5 1.5l1 -33q-41 -2 -105 -4q-163 -6 -178 -72l-193 -803q-47 -199 -192 -318.5t-336 -119.5q-123 0 -193.5 62t-70.5 169q0 98 50 158t130 60q59 0 96 -38t37 -98q0 -64 -42 -107.5
t-105 -43.5q-30 0 -60.5 13t-34.5 13q-6 0 -11 -4t-5 -10q0 -55 56 -97t137 -42q102 0 159 66t125 319z" />
    <glyph glyph-name="K" unicode="K" horiz-adv-x="1575" 
d="M-113 33q191 8 219 23.5t56 107.5q124 411 214.5 747t90.5 363q0 42 -142 48q-67 2 -112 6v33q63 -1 185.5 -5t170.5 -4q76 0 257 6q95 3 144 4l1 -35q-17 0 -49 -1q-170 -5 -193 -30q-25 -27 -119 -384q-43 -160 -69 -257q356 230 512.5 362t156.5 200q0 52 -43 82
t-118 30h-9l1 29q85 -3 156 -4.5t128 -1.5q66 0 224 3q21 1 32 1v-33q-147 -13 -439 -260q-131 -111 -208 -170l215 -752q23 -80 46.5 -91.5t211.5 -17.5l-1 -32q-125 3 -214 4.5t-139 1.5q-64 0 -153 -1.5t-205 -4.5v33q64 1 123 4t111 8l-188 707q-69 -44 -118.5 -74
t-94.5 -55q-16 -60 -46 -165q-95 -338 -95 -376q0 -42 150 -47q36 -1 57 -2l-1 -33q-117 3 -207.5 4.5t-154.5 1.5q-58 0 -142.5 -1.5t-200.5 -4.5z" />
    <glyph glyph-name="L" unicode="L" horiz-adv-x="1399" 
d="M-149 0l2 33q46 3 118 7q161 8 181 64q14 42 58 205.5t128 485.5q68 258 91.5 357.5t23.5 125.5q0 33 -124 39q-86 5 -144 10l-1 35q25 -1 74 -3q234 -9 328 -9q89 0 195.5 2.5t223.5 7.5l1 -33q-62 -6 -147 -11q-144 -9 -163 -79q-123 -447 -206.5 -787.5t-83.5 -377.5
q0 -22 39 -29.5t227 -7.5q130 0 205.5 21t132.5 71q72 62 147 165t143 234h17q-50 -171 -81.5 -293t-53.5 -225q-36 0 -85 1t-63 1q-46 0 -155 -4t-172 -4q-81 0 -225.5 4t-207.5 4q-70 0 -168 -2t-255 -8z" />
    <glyph glyph-name="M" unicode="M" horiz-adv-x="1753" 
d="M489 1282q-120 -448 -192 -749t-72 -355q0 -77 59 -114t179 -37l-1 -29q-30 1 -67 1.5t-110 0.5q-86 0 -178.5 -2.5t-194.5 -7.5v28q234 20 327 388l5 20l135 545q24 100 34.5 152t10.5 75q0 45 -62 76t-184 47v41q49 -11 103 -16t125 -5q23 0 70 1t71 1q16 0 49 -1
t49 -1q27 0 48.5 2.5t41.5 7.5q21 -316 41.5 -555.5t44.5 -433.5h10l322 603q72 134 115.5 222t81.5 171q22 0 67 -2t68 -2q36 0 106.5 -1t106.5 -1q57 0 102.5 2.5t85.5 7.5v-33q-38 -6 -102 -15q-156 -22 -170 -50q-17 -32 -54.5 -169t-101.5 -397q-78 -318 -111.5 -461
t-33.5 -159q0 -38 156 -42q67 -1 110 -4v-32q-80 1 -215 3.5t-186 2.5q-55 0 -233 -2q-94 -1 -148 -2v33q40 1 102 2q151 1 170 72l299 1171h-18q-154 -284 -377 -709t-297 -563l-78 4l-86 1270h-23z" />
    <glyph glyph-name="N" unicode="N" horiz-adv-x="1550" 
d="M-117 29q165 0 239.5 60.5t121.5 250.5l129 520q27 109 43 192.5t16 108.5q0 62 -58 110t-145 48h-41v35h242q80 0 121.5 1.5t76.5 4.5l496 -1026q106 362 161.5 581t55.5 273q0 64 -54 106.5t-142 42.5q-1 0 -7 1q-19 1 -38 1v25q24 0 70.5 -1t68.5 -1q91 0 194.5 3.5
t233.5 10.5v-28q-98 -3 -165.5 -36t-92.5 -89q-15 -35 -107 -371t-221 -829l-65 -15l-541 1139l-201 -824q-1 -6 -5 -20q-19 -71 -19 -104q0 -89 62 -129.5t200 -40.5v-29q-132 3 -208 4.5t-105 1.5q-56 0 -134.5 -1.5t-180.5 -4.5z" />
    <glyph glyph-name="O" unicode="O" horiz-adv-x="1374" 
d="M1077 1090q0 126 -66 198t-184 72q-101 0 -179 -65.5t-144 -207.5q-96 -207 -153.5 -438t-57.5 -387q0 -124 61 -192t172 -68q114 0 195 69.5t156 235.5q91 203 145.5 418t54.5 365zM1307 840q0 -182 -92 -365t-254 -323q-100 -87 -213 -136t-211 -49q-200 0 -331.5 157
t-131.5 400q0 168 67 331.5t189 293.5q112 118 239.5 181t253.5 63q208 0 346 -157.5t138 -395.5z" />
    <glyph glyph-name="P" unicode="P" horiz-adv-x="1356" 
d="M-151 4v29q42 3 101 9t187 19q164 581 247 888t83 333q0 37 -169 38q-70 0 -114 1v33h103q180 0 386 11t232 11q213 0 335 -96t122 -260q0 -171 -161 -283t-408 -112q-49 0 -110.5 4t-137.5 12l-142 -539q-1 -6 -1.5 -11t-0.5 -15q0 -32 139 -36q94 -3 158 -7v-33
q-185 6 -286.5 8t-167.5 2q-61 0 -160.5 -1.5t-234.5 -4.5zM713 1257l-156 -579q90 -11 131.5 -15t69.5 -4q170 0 276.5 133.5t106.5 337.5q0 111 -58 162t-184 51q-164 0 -184 -76q-1 -6 -2 -10z" />
    <glyph glyph-name="Q" unicode="Q" horiz-adv-x="1370" 
d="M628 -6q-28 -3 -51.5 -4.5t-41.5 -1.5q-201 0 -331 148t-130 380q0 165 63 315t189 283q118 126 251 193t263 67q200 0 324 -154t124 -403q0 -232 -126 -424t-361 -317q0 -1 1 -5q82 -253 187 -253q74 0 134 73.5t98 210.5l28 -8q-44 -182 -154 -288.5t-251 -106.5
q-104 0 -162.5 58.5t-58.5 160.5q0 18 1.5 37.5t3.5 38.5zM635 37q8 27 12 54.5t4 55.5q0 66 -31.5 104t-87.5 38q-58 0 -97.5 -44.5t-39.5 -109.5q0 -60 37 -90.5t109 -30.5q25 0 47.5 5.5t46.5 17.5zM786 109q132 204 210.5 474.5t78.5 512.5q0 123 -58.5 185t-174.5 62
q-90 0 -162 -44.5t-133 -139.5q-50 -78 -95.5 -187.5t-80.5 -238.5q-37 -133 -57.5 -256t-20.5 -203q0 -88 22.5 -143.5t67.5 -77.5q-8 22 -12 41.5t-4 38.5q0 81 49.5 130.5t130.5 49.5q85 0 144.5 -50.5t94.5 -153.5z" />
    <glyph glyph-name="R" unicode="R" horiz-adv-x="1511" 
d="M-123 28q49 6 118 10q124 8 148 64q19 42 105 356q50 181 82 294q60 219 92.5 352t32.5 162q0 41 -154 48q-72 4 -116 7v33q74 -3 149.5 -4.5t150.5 -1.5q92 0 240 7t205 7q204 0 328 -92.5t124 -237.5q0 -144 -139.5 -234t-371.5 -91q133 -16 203.5 -86.5t70.5 -188.5
q0 -64 -26.5 -180.5t-26.5 -163.5q0 -32 14.5 -48.5t42.5 -16.5q65 0 115.5 84.5t76.5 238.5l31 -6q-33 -185 -97.5 -272.5t-166.5 -87.5q-92 0 -158.5 56.5t-66.5 135.5q0 71 44 210t44 191q0 66 -55.5 91.5t-243.5 25.5h-117l-143 -550q-2 -9 -6.5 -25t-4.5 -23
q0 -47 176 -49q69 -1 109 -2v-35q-78 1 -187.5 2.5t-131.5 1.5q-91 0 -210.5 -4t-279.5 -12v34zM566 725q39 -1 79 -1.5t96 -0.5q118 0 187 23.5t121 78.5q47 52 79.5 137.5t32.5 155.5q0 109 -61 160t-191 51q-118 0 -152.5 -12t-51.5 -74z" />
    <glyph glyph-name="S" unicode="S" horiz-adv-x="1337" 
d="M45 12l178 652l25 -5q-12 -60 -17.5 -114.5t-5.5 -106.5q0 -176 124.5 -302t299.5 -126q136 0 220.5 73.5t84.5 190.5q0 189 -330 350q-42 20 -64 31q-134 67 -195.5 148t-61.5 190q0 168 122.5 279.5t309.5 111.5q112 0 198.5 -47.5t149.5 -144.5q47 34 86 75t72 91
l21 -2l-152 -543l-23 4q7 42 10 80t3 74q0 168 -100 275.5t-252 107.5q-130 0 -204.5 -61t-74.5 -165q0 -56 26.5 -108.5t77.5 -97.5q59 -51 234 -128q90 -39 137 -63q82 -40 136.5 -131t54.5 -192q0 -178 -144 -304.5t-348 -126.5q-114 0 -217 60t-180 172
q-52 -46 -96.5 -96t-81.5 -107z" />
    <glyph glyph-name="T" unicode="T" horiz-adv-x="1413" 
d="M76 0v33q124 4 192.5 7.5t122.5 8.5q114 389 202 715.5t142 556.5q-23 2 -49 3t-70 1q-77 0 -118.5 -14t-77.5 -49q-45 -44 -125.5 -166.5t-169.5 -288.5l-19 6l158 542q58 2 123.5 3.5t73.5 1.5q125 0 258 -3t141 -3q53 0 192.5 5t227.5 5q51 0 178 -3q27 -1 41 -1
l-158 -537l-18 3q3 47 4.5 92t1.5 90q0 213 -34 268t-154 55q-30 0 -68 -2.5t-88 -7.5q-158 -579 -238.5 -891t-80.5 -348q0 -38 159 -43q96 -2 160 -6v-33q-53 1 -150 3q-237 5 -313 5q-82 0 -197 -2t-249 -6z" />
    <glyph glyph-name="U" unicode="U" horiz-adv-x="1479" 
d="M179 1327v33q114 -3 229 -4.5t231 -1.5q22 0 100.5 1.5t212.5 4.5v-29q-136 -10 -176 -17t-53 -18q-12 -10 -26.5 -49.5t-45.5 -146.5l-190 -651q-20 -71 -31.5 -134.5t-11.5 -101.5q0 -99 60 -152t171 -53q183 0 305.5 127.5t184.5 382.5l94 391q21 90 32 156t11 106
q0 78 -51 116t-166 44v27q75 -3 146 -4.5t138 -1.5q58 0 145 3.5t111 4.5v-39h-18q-214 0 -326 -447q-11 -40 -16 -61q-14 -57 -39 -162q-82 -347 -160 -458q-76 -110 -190.5 -168t-253.5 -58q-172 0 -289 116.5t-117 283.5q0 40 2 72l1 3l225 736q11 38 15.5 58t4.5 32
q0 45 -148 53q-69 3 -111 6z" />
    <glyph glyph-name="V" unicode="V" horiz-adv-x="1456" 
d="M414 -16l2 1319q-57 10 -116.5 16.5t-120.5 7.5v33q103 -3 197 -4.5t177 -1.5q80 0 175.5 1.5t205.5 3.5l-1 -32q-91 -5 -154 -13t-77 -16q-23 -14 -26 -175v-13l-19 -799q91 134 247 352q304 426 304 537q0 61 -45 94t-127 33h-6v33q58 -2 117 -3t147 -1q105 0 163.5 1
t113.5 3l-1 -33q-85 -2 -149.5 -40.5t-142.5 -139.5q-40 -50 -272 -385t-531 -778h-61z" />
    <glyph glyph-name="W" unicode="W" horiz-adv-x="2005" 
d="M1081 1012l-368 -559q-72 -108 -143 -219.5t-144 -229.5l-61 6q1 97 1.5 186.5t0.5 188.5q0 587 -3.5 736.5t-11.5 170.5q-12 32 -121 37q-33 1 -52 2l-1 29q25 -1 71 -2q183 -6 253 -6q59 0 137 2t166 6l-1 -29q-13 -1 -38 -3q-172 -15 -172 -124v-6l4 -874l483 735
l-8 181q-4 84 -148 88q-35 0 -57 1v29q22 -1 61 -1q178 -3 247 -3q111 0 198.5 1.5t177.5 4.5v-29q-32 -4 -83 -9q-148 -17 -148 -48v-35l33 -887l43 68q434 674 434 792q0 61 -43 91t-131 30h-10v29q47 0 116.5 -2t91.5 -2q42 0 138 2.5t145 3.5v-26q-83 -8 -142.5 -50
t-129.5 -149q-4 -6 -21 -37q-123 -221 -272 -459q-122 -196 -209.5 -344t-171.5 -299l-68 4z" />
    <glyph glyph-name="X" unicode="X" horiz-adv-x="1575" 
d="M-151 0v29q88 3 167.5 36t163.5 101q6 5 171.5 165t338.5 310l-213 596q-30 84 -177 86q-65 1 -107 2v29h194q145 0 287.5 1.5t281.5 4.5v-29q-36 -3 -95 -7q-140 -9 -140 -40q0 -10 6 -26q1 -4 2 -7l145 -430q202 174 285.5 265t83.5 133q0 49 -47 80.5t-125 31.5h-12
v29q79 -3 142 -4.5t110 -1.5t114.5 1.5t153.5 3.5v-28h-6q-120 0 -407 -278q-170 -166 -281 -262l239 -670q30 -82 174 -85q69 -1 117 -3v-33q-59 1 -162 4q-182 4 -235 4q-72 0 -285 -5q-81 -2 -125 -3v28q24 2 66 3q200 8 200 51q0 5 -2 15q-1 3 -2 5l-168 508
q-258 -224 -335.5 -312.5t-77.5 -141.5q0 -64 50.5 -95.5t154.5 -31.5h30v-29q-113 3 -200.5 4.5t-149.5 1.5q-45 0 -126.5 -1.5t-198.5 -4.5z" />
    <glyph glyph-name="Y" unicode="Y" horiz-adv-x="1526" 
d="M160 0v33q36 1 98 3q193 5 211 21q25 22 126 425q21 81 32 124l-183 649q-18 65 -159 70q-66 2 -108 4l-1 29q15 0 44 -1q227 -3 325 -3q55 0 155 1.5t246 4.5v-28q-53 -4 -130 -5q-122 -2 -122 -35q0 -3 2 -15.5t4 -24.5l150 -611q270 309 353 421t83 155q0 51 -54 82.5
t-145 31.5h-8v29q53 -2 110.5 -3t160.5 -1q86 0 143 1t113 3v-29q-92 -6 -147 -31.5t-103 -82.5q-6 -7 -38 -49q-207 -271 -448 -550l-133 -505q-2 -10 -3 -19.5t-1 -17.5q1 -32 167 -37q91 -3 150 -6l1 -33q-134 4 -249 6t-200 2q-90 0 -338 -6q-68 -1 -104 -2z" />
    <glyph glyph-name="Z" unicode="Z" horiz-adv-x="1432" 
d="M-66 4v21q413 421 1055 1173l109 127q-52 6 -95.5 9t-76.5 3q-141 0 -208.5 -15t-115.5 -50q-69 -53 -151 -159t-156 -243l-19 4l134 482q15 0 46.5 -1t45.5 -1q86 0 222.5 6t186.5 6q46 0 129.5 -4t120.5 -4q67 0 131 3t127 9l11 -35q-34 0 -328.5 -332.5t-808.5 -951.5
q73 -10 143.5 -15t138.5 -5q124 0 193.5 20.5t126.5 69.5q78 66 170.5 185.5t179.5 266.5l17 -2l-157 -571q-54 5 -103.5 7.5t-96.5 2.5q-50 0 -149.5 -4t-151.5 -4q-77 0 -212 5t-193 5t-124.5 -2t-140.5 -6z" />
    <glyph glyph-name="bracketleft" unicode="[" horiz-adv-x="782" 
d="M188 -313h306v-39h-480l455 1712h426v-39h-277z" />
    <glyph glyph-name="backslash" unicode="\" horiz-adv-x="653" 
d="M461 -190h-74l-160 1550h74z" />
    <glyph glyph-name="bracketright" unicode="]" horiz-adv-x="782" 
d="M506 1321h-305v39h477l-453 -1712h-428v39h277z" />
    <glyph glyph-name="asciicircum" unicode="^" horiz-adv-x="2048" 
d="M926 1462h194l512 -565h-98l-512 420l-514 -420h-96z" />
    <glyph glyph-name="underscore" unicode="_" 
d="M0 -340h1024v-143h-1024v143z" />
    <glyph glyph-name="grave" unicode="`" 
d="M567 1299l199 -281h-55l-224 221l-15 15q-46 45 -46 71q0 22 14.5 35.5t38.5 13.5q34 0 80 -64q5 -7 8 -11z" />
    <glyph glyph-name="a" unicode="a" horiz-adv-x="1055" 
d="M197 2q77 0 143 71.5t135 233.5q73 168 110.5 280.5t37.5 162.5q0 60 -25.5 94.5t-69.5 34.5q-63 0 -117.5 -56t-115.5 -184q-79 -166 -129.5 -336.5t-50.5 -230.5q0 -36 19.5 -53t62.5 -17zM971 311q-62 -186 -131 -265t-168 -79q-83 0 -124.5 43.5t-41.5 130.5
q0 39 11.5 105.5t33.5 154.5h-6q-102 -252 -182 -340t-193 -88q-98 0 -157.5 71t-59.5 189q0 100 42.5 207.5t121.5 206.5q98 126 198 189t201 63q62 0 97.5 -36t35.5 -97q0 -25 -0.5 -37t-1.5 -22h4l70 180q14 -28 26.5 -35.5t34.5 -7.5q29 0 49 8t35 24l13 -2
q-102 -303 -163 -526.5t-61 -286.5q0 -32 13 -45.5t43 -13.5q63 0 121 78t114 239z" />
    <glyph glyph-name="b" unicode="b" horiz-adv-x="961" 
d="M326 -14q75 0 127.5 54.5t103.5 188.5q60 159 94.5 303t34.5 226q0 52 -20.5 78t-61.5 26q-57 0 -109.5 -54t-119.5 -183q-73 -139 -119.5 -294.5t-46.5 -234.5q0 -52 31 -81t86 -29zM319 1202q8 22 12.5 42t4.5 30q0 36 -156 37q-57 1 -90 2v26q94 2 198 6.5t244 14.5
l-239 -834l8 -2q87 202 157.5 282.5t155.5 80.5q100 0 161 -94.5t61 -251.5q0 -231 -153.5 -407.5t-352.5 -176.5q-138 0 -224 78.5t-86 200.5q1 20 5.5 44.5t13.5 51.5z" />
    <glyph glyph-name="c" unicode="c" horiz-adv-x="827" 
d="M657 301q-71 -174 -169 -258t-230 -84q-130 0 -208.5 87t-78.5 233q0 128 64 257t178 230q82 73 158.5 108t152.5 35q86 0 136.5 -50t50.5 -136q0 -75 -38.5 -122.5t-97.5 -47.5q-39 0 -62.5 23.5t-23.5 62.5q0 47 35.5 83t83.5 36q7 0 18 -1.5t25 -4.5q1 6 1.5 13
t0.5 19q0 43 -35 70t-92 27q-67 0 -118.5 -44.5t-100.5 -144.5q-68 -142 -111.5 -309t-43.5 -268q0 -67 29.5 -96t97.5 -29q110 0 195.5 78.5t154.5 242.5z" />
    <glyph glyph-name="d" unicode="d" horiz-adv-x="1098" 
d="M131 102q0 -46 21.5 -67t68.5 -21q70 0 124.5 51t115.5 179q72 152 109.5 277t37.5 214q0 66 -24.5 100.5t-71.5 34.5q-66 0 -114.5 -53t-114.5 -207q-68 -155 -110 -303t-42 -205zM825 1221q6 17 9.5 31t3.5 22q0 12 -11 18t-32 6q-3 0 -21 2q-78 7 -155 9v28
q111 2 221 7.5t223 15.5q-190 -616 -276.5 -924.5t-86.5 -367.5q0 -29 15.5 -44.5t44.5 -15.5q63 0 120 76t126 258l24 -4q-73 -206 -142 -284.5t-169 -78.5q-89 0 -143 51.5t-54 137.5q0 32 6 74.5t21 111.5l-10 2q-94 -220 -162 -292t-164 -72q-111 0 -175.5 76.5
t-64.5 209.5q0 113 50.5 229t142.5 216q79 85 167 133.5t161 48.5q71 0 107 -40t36 -118q0 -30 -6 -71t-23 -121h10z" />
    <glyph glyph-name="e" unicode="e" horiz-adv-x="817" 
d="M213 422q7 1 17 2q152 19 196 55q55 45 103.5 153t48.5 183q0 28 -21 42.5t-59 14.5q-137 0 -275 -420zM639 289q-77 -171 -175 -249.5t-235 -78.5q-123 0 -192.5 73.5t-69.5 205.5q0 107 54 232t149 233q90 102 171.5 149t168.5 47q85 0 133.5 -44t48.5 -122
q0 -139 -129 -230.5t-360 -115.5q-32 -107 -49 -184.5t-17 -112.5q0 -51 29 -75.5t90 -24.5q114 0 201 75t157 234z" />
    <glyph glyph-name="f" unicode="f" horiz-adv-x="682" 
d="M272 831h-227l12 48h232q89 256 197 386t233 130q73 0 111 -37t38 -107q0 -52 -33.5 -88.5t-82.5 -36.5q-38 0 -62 25t-24 63q0 85 88 113q20 6 20 10q0 11 -15.5 19t-39.5 8q-98 0 -154.5 -96.5t-107.5 -378.5h219l-12 -47h-213q-32 -214 -90 -410t-142 -375
q-115 -243 -214.5 -347.5t-213.5 -104.5q-70 0 -110.5 36.5t-40.5 98.5q0 53 32 89t80 36q37 0 60.5 -23.5t23.5 -60.5q0 -74 -89 -105q-23 -8 -23 -14q0 -10 19.5 -19.5t45.5 -9.5q117 0 184.5 114.5t135.5 472.5l7 42q51 301 156 569z" />
    <glyph glyph-name="g" unicode="g" horiz-adv-x="981" 
d="M586 666q0 114 -27.5 157t-95.5 43q-54 0 -93.5 -45t-93.5 -178q-60 -152 -96.5 -305.5t-36.5 -228.5q0 -49 20.5 -72t63.5 -23q53 0 105 38t98 110q25 38 47 87.5t41 110.5q31 105 49.5 190t18.5 116zM479 193q-57 -105 -122.5 -156t-141.5 -51q-110 0 -177 77.5
t-67 206.5q0 107 42 215t122 207q77 97 163.5 150t164.5 53q80 0 115 -47.5t37 -159.5l6 -2l57 207q20 -19 47 -28t63 -9q23 0 36 4.5t25 15.5l17 -4l-200 -745l-6 -23q-81 -300 -148 -374q-52 -59 -137 -91t-187 -32q-109 0 -166 38t-57 111q0 50 29.5 80.5t77.5 30.5
q39 0 63.5 -26.5t24.5 -69.5q0 -56 -50.5 -77t-50.5 -24q0 -14 34.5 -25.5t80.5 -11.5q99 0 154.5 61.5t97.5 233.5l63 260z" />
    <glyph glyph-name="h" unicode="h" horiz-adv-x="1042" 
d="M141 -10h-14q-15 26 -31 35.5t-51 9.5q-27 0 -51 -11t-51 -34q153 481 258.5 860.5t105.5 425.5q0 35 -120 38q-63 1 -103 3v29q109 0 215.5 3.5t214.5 10.5l-223 -807l33 27q90 213 149 270t154 57q85 0 138.5 -53t53.5 -141q0 -60 -75 -269q-32 -88 -50 -139
q-24 -70 -37.5 -129.5t-13.5 -91.5q0 -36 14 -52t45 -16q71 0 133.5 90.5t98.5 245.5l27 -6q-40 -178 -115 -272t-178 -94q-84 0 -134.5 46t-50.5 124q0 42 17.5 108.5t79.5 237.5q50 140 71 213t21 106q0 31 -20.5 48.5t-57.5 17.5q-96 0 -188 -173t-265 -718z" />
    <glyph glyph-name="i" unicode="i" horiz-adv-x="647" 
d="M303 1212q0 53 30 85t79 32q50 0 80 -32t30 -85q0 -51 -31 -82.5t-79 -31.5t-78.5 32t-30.5 82zM557 346q-45 -188 -116 -279.5t-173 -91.5q-87 0 -138.5 57.5t-51.5 155.5q0 53 32 134q3 8 5 12q28 72 81 194q97 222 97 287q0 21 -16.5 35t-40.5 14q-68 0 -121 -61.5
t-119 -222.5l-29 8q76 177 137 241t146 64q79 0 132.5 -66t53.5 -161q0 -29 -29 -103q-5 -13 -8 -21q-15 -39 -45 -111q-114 -285 -114 -359q0 -31 15 -46.5t44 -15.5q71 0 131.5 89.5t99.5 252.5z" />
    <glyph glyph-name="j" unicode="j" horiz-adv-x="647" 
d="M389 1212q0 53 30.5 85t80.5 32q48 0 78 -32t30 -85q0 -50 -30.5 -82t-77.5 -32q-49 0 -80 31.5t-31 82.5zM-8 528q64 203 142.5 290t195.5 87q75 0 121.5 -45t46.5 -119q0 -26 -22 -111l-1 -1l-180 -649l-2 -7q-42 -146 -66 -192q-38 -75 -129.5 -120.5t-206.5 -45.5
q-97 0 -150.5 41.5t-53.5 116.5q0 57 31.5 95t78.5 38q39 0 61.5 -24t22.5 -64q0 -69 -66.5 -90t-66.5 -23q0 -19 34.5 -39t78.5 -20q81 0 137.5 74t105.5 251l203 717q13 46 21 81t8 46q0 26 -15.5 40.5t-41.5 14.5q-74 0 -141.5 -90t-119.5 -258z" />
    <glyph glyph-name="k" unicode="k" horiz-adv-x="1028" 
d="M309 575q10 0 29.5 -1t30.5 -1q103 0 144.5 23t78.5 92q13 25 36 72q77 162 179 162q58 0 93.5 -32.5t35.5 -86.5q0 -56 -32 -93.5t-79 -37.5q-38 0 -61 22.5t-23 61.5q0 43 23 78t65 57q-7 1 -21 3.5t-20 2.5q-65 0 -136 -150q-23 -48 -36 -74q-27 -55 -59.5 -81.5
t-77.5 -30.5q90 -12 140.5 -62t50.5 -126q0 -55 -36 -156t-36 -141q0 -27 12 -39t39 -12q64 0 130 71.5t110 192.5l24 -8q-52 -144 -130.5 -219.5t-174.5 -75.5q-79 0 -137.5 50t-58.5 116q0 54 51 169t51 156q0 38 -28 53t-103 15q-18 0 -39 -0.5t-45 -1.5
q-60 -196 -100 -330.5t-66 -226.5h-18q-11 16 -29 24t-45 8q-36 0 -96 -30q-8 -4 -13 -6q236 753 313 1007.5t77 280.5q-1 31 -114 33q-77 1 -130 4v28q150 4 259 10t203 15z" />
    <glyph glyph-name="l" unicode="l" horiz-adv-x="639" 
d="M553 352q-74 -215 -144.5 -297t-172.5 -82q-92 0 -144.5 63.5t-52.5 174.5q0 27 3.5 51t10.5 47l277 873q10 33 16 57t6 33q0 30 -123 33q-64 2 -104 4v28q103 0 214 6t230 17q-208 -687 -284 -961t-76 -331q0 -27 16.5 -42.5t46.5 -15.5q72 0 130.5 80t123.5 268z" />
    <glyph glyph-name="m" unicode="m" horiz-adv-x="1581" 
d="M-76 471q68 231 149 332.5t197 101.5q66 0 105 -44t39 -120q0 -36 -12.5 -93.5t-45.5 -170.5l15 -4q113 261 186.5 346.5t167.5 85.5q80 0 124 -43t44 -123q0 -36 -11.5 -91t-47.5 -179h10q124 278 193 357t157 79q80 0 130 -53.5t50 -138.5q0 -57 -65 -229
q-23 -61 -35 -95q-50 -138 -71 -211.5t-21 -107.5q0 -18 12 -29.5t31 -11.5q66 0 132.5 90.5t117.5 253.5l22 -6q-56 -186 -136.5 -282.5t-180.5 -96.5q-71 0 -114.5 50t-43.5 130q0 21 4 43.5t10 39.5l150 402q21 57 31 93.5t10 60.5q0 32 -15 47.5t-45 15.5
q-96 0 -211.5 -214t-263.5 -666h-14q-13 19 -30.5 28t-41.5 9q-32 0 -101 -32q-7 -3 -11 -5q108 294 176.5 530t68.5 295q0 31 -11.5 43t-39.5 12q-92 0 -201.5 -204.5t-267.5 -675.5h-12q-15 19 -31.5 28t-38.5 9q-23 0 -53 -10t-59 -27q110 315 174.5 541t64.5 292
q0 26 -11 36.5t-36 10.5q-71 0 -142 -105.5t-126 -297.5z" />
    <glyph glyph-name="n" unicode="n" horiz-adv-x="1141" 
d="M219 -18q-21 22 -44.5 32.5t-53.5 10.5q-21 0 -36.5 -8t-29.5 -27h-24q112 309 183 544t71 289q0 25 -14.5 38t-41.5 13q-77 0 -145.5 -93.5t-112.5 -262.5l-28 10q58 203 136 290t200 87q74 0 114.5 -43t40.5 -121q0 -72 -62 -278l-12 -39l11 -2q127 325 196 404t170 79
q83 0 136 -53.5t53 -136.5q0 -59 -57 -199q-31 -76 -46 -119q-55 -156 -71.5 -218t-16.5 -97t16 -53.5t46 -18.5q58 0 120 85t111 237l27 -10q-66 -190 -135 -269.5t-166 -79.5q-86 0 -134.5 50t-48.5 139q0 76 65 243q14 36 21 55l17 43q96 247 96 300q0 31 -19 48t-53 17
q-73 0 -146.5 -113t-195.5 -425z" />
    <glyph glyph-name="o" unicode="o" horiz-adv-x="901" 
d="M506 879q-76 0 -128.5 -57t-111.5 -212q-54 -143 -84 -272t-30 -213q0 -71 28.5 -105t87.5 -34q71 0 120 48.5t97 172.5q60 152 93.5 298.5t33.5 246.5q0 63 -26.5 95t-79.5 32zM510 907q123 0 199.5 -99t76.5 -257q0 -227 -160.5 -410.5t-355.5 -183.5
q-138 0 -218.5 86.5t-80.5 235.5q0 134 55 256.5t158 218.5q81 76 163 114.5t163 38.5z" />
    <glyph glyph-name="p" unicode="p" horiz-adv-x="1071" 
d="M707 872q-59 0 -107.5 -54t-110.5 -193q-55 -125 -85.5 -244.5t-30.5 -206.5q0 -75 22.5 -111t69.5 -36q48 0 90.5 44.5t85.5 139.5q72 156 115 306.5t43 230.5q0 62 -23 93t-69 31zM-274 -356q20 0 56 1q153 4 191 119q139 417 228.5 718t89.5 343q0 19 -13 30t-34 11
q-66 0 -140.5 -97.5t-132.5 -264.5l-26 8q70 202 156 297.5t196 95.5q75 0 115.5 -41t40.5 -116q0 -33 -8 -79t-25 -112l10 -2q78 202 142.5 276t152.5 74q104 0 170 -94t66 -244q0 -217 -149.5 -397t-317.5 -180q-83 0 -116.5 41.5t-33.5 146.5q0 33 4 73t12 83l-8 2
l-192 -586q-7 -19 -11 -37t-4 -26q0 -39 127 -41q52 -1 84 -2v-37q-93 3 -174.5 4.5t-148.5 1.5q-57 0 -133.5 -1.5t-173.5 -4.5v37z" />
    <glyph glyph-name="q" unicode="q" horiz-adv-x="981" 
d="M152 127q0 -56 22 -83.5t68 -27.5q56 0 111.5 50.5t103.5 146.5q69 138 112 287.5t43 238.5q0 67 -30.5 103.5t-87.5 36.5q-65 0 -111 -50.5t-96 -181.5q-63 -161 -99 -301.5t-36 -218.5zM711 725q41 42 81 89.5t76 98.5l21 -8l-365 -1213q-1 -3 -1.5 -6.5t-0.5 -9.5
q0 -24 172 -30q39 -1 62 -2l-1 -27q-64 1 -137 1.5t-208 0.5q-86 0 -153 -0.5t-136 -1.5v28q33 2 84 4q128 5 145 66l142 492l-9 4q-52 -113 -115.5 -168t-140.5 -55q-112 0 -182 85.5t-70 223.5q0 108 55 231t150 226q70 74 147.5 113.5t153.5 39.5q82 0 134.5 -44.5
t80.5 -137.5h15z" />
    <glyph glyph-name="r" unicode="r" horiz-adv-x="872" 
d="M-55 518q69 203 146 295t175 92q74 0 121 -49.5t47 -126.5q0 -40 -10.5 -93.5t-42.5 -168.5l12 -4q120 293 181 364.5t145 71.5q57 0 91 -29.5t34 -78.5q0 -58 -37 -99t-90 -41q-36 0 -58 21.5t-22 54.5q0 43 21.5 78.5t64.5 62.5q-6 1 -12 1.5t-13 0.5
q-81 0 -170 -166.5t-280 -719.5q-24 22 -48 32.5t-53 10.5q-26 0 -45 -8.5t-32 -26.5l-17 10q121 343 182.5 549.5t61.5 265.5q0 28 -12.5 42.5t-36.5 14.5q-79 0 -144.5 -86t-134.5 -280z" />
    <glyph glyph-name="s" unicode="s" horiz-adv-x="815" 
d="M29 150q6 -82 61.5 -123t159.5 -41q90 0 150.5 51.5t60.5 126.5q0 108 -188 213q-32 18 -50 29q-59 34 -88 82t-29 112q0 131 88.5 219t223.5 88q109 0 179.5 -60t70.5 -153q0 -57 -31.5 -93t-81.5 -36q-40 0 -65 23t-25 59q0 45 30 71.5t80 26.5q6 0 13 -0.5t14 -1.5
q-9 63 -61 99.5t-133 36.5t-136 -49.5t-55 -120.5q0 -52 30.5 -89t147.5 -100q112 -60 154.5 -117t42.5 -139q0 -134 -97 -220.5t-249 -86.5q-125 0 -201 61.5t-76 161.5q0 68 34 108t91 40q39 0 64.5 -27.5t25.5 -67.5q0 -42 -27 -72t-63 -30q-20 0 -35 4.5t-30 14.5z" />
    <glyph glyph-name="t" unicode="t" horiz-adv-x="721" 
d="M256 219q-14 -49 -20.5 -83t-6.5 -60q0 -33 15.5 -49.5t46.5 -16.5q80 0 143 88.5t109 266.5l26 -7q-53 -203 -126 -294t-181 -91q-94 0 -147.5 62.5t-53.5 173.5q0 24 3 46.5t10 45.5l159 518h-178l6 41l189 6q28 95 53.5 182t46.5 162h17q11 -32 24.5 -42.5t42.5 -10.5
q31 0 56.5 13t52.5 40l-97 -338h187v-49h-201z" />
    <glyph glyph-name="u" unicode="u" horiz-adv-x="1141" 
d="M1065 401q-55 -217 -132.5 -318t-189.5 -101q-74 0 -117.5 42t-43.5 115q0 54 62 282l3 13l-10 2q-110 -288 -178 -371t-162 -83q-89 0 -145 55.5t-56 144.5q0 76 72 277q8 23 12 35q49 136 70.5 213t21.5 114q0 27 -11 39t-36 12q-74 0 -137.5 -95.5t-114.5 -282.5
l-26 6q52 202 126.5 302.5t172.5 100.5q81 0 128.5 -51t47.5 -137q0 -70 -62 -251l-6 -18l-21 -63q-85 -251 -85 -305q0 -32 17.5 -49t49.5 -17q152 0 444 819l25 72q18 -14 37.5 -20t48.5 -6q24 0 42 6t38 20h19q-103 -322 -167.5 -556.5t-64.5 -278.5q0 -26 11 -37t36 -11
q75 0 138.5 97.5t115.5 290.5z" />
    <glyph glyph-name="v" unicode="v" horiz-adv-x="991" 
d="M-51 555q71 186 146 268t173 82q81 0 127.5 -49.5t46.5 -136.5q0 -64 -69 -265q-10 -29 -15 -43q-54 -160 -73 -228t-19 -101q0 -43 23 -64.5t67 -21.5q82 0 158.5 52t147.5 155q68 100 106.5 209t38.5 200q0 23 -2 44.5t-6 43.5q-23 -12 -40 -17t-34 -5q-46 0 -76.5 28
t-30.5 72q0 49 27.5 82t69.5 33q62 0 95.5 -58t33.5 -167q0 -118 -40 -241t-114 -232q-74 -112 -166 -173t-186 -61q-105 0 -169.5 61t-64.5 160q0 51 66 238q15 41 23 63q12 37 35 101q71 202 71 250q0 19 -13.5 29.5t-37.5 10.5q-76 0 -141.5 -78.5t-131.5 -248.5z" />
    <glyph glyph-name="w" unicode="w" horiz-adv-x="1485" 
d="M-55 541q77 192 159 277t187 85q82 0 131 -46.5t49 -125.5q0 -54 -67 -245q-23 -65 -35 -101q-53 -157 -70.5 -223t-17.5 -96q0 -36 16 -53t51 -17q94 0 181.5 171.5t258.5 737.5h21q14 -27 34 -40t48 -13q24 0 48 9.5t56 31.5q-99 -306 -160 -535.5t-61 -287.5
q0 -39 20 -58.5t60 -19.5q89 0 170 62t160 190q66 107 102.5 215t36.5 196q0 9 -1 20l-3 33q-27 -15 -46.5 -21.5t-39.5 -6.5q-40 0 -63 25.5t-23 68.5q0 52 28 86.5t68 34.5q53 0 87 -54t34 -141q0 -103 -43 -231.5t-119 -247.5q-85 -132 -174 -198t-184 -66
q-98 0 -160.5 59.5t-62.5 153.5q0 47 13 112.5t42 157.5l-10 2q-110 -311 -177 -397t-163 -86q-88 0 -146.5 60t-58.5 149q0 70 67 247l9 23q62 160 92 253.5t30 123.5t-14 43.5t-45 13.5q-75 0 -151.5 -89t-139.5 -251z" />
    <glyph glyph-name="x" unicode="x" horiz-adv-x="1100" 
d="M80 528q77 188 169.5 279.5t205.5 91.5q85 0 133.5 -43.5t48.5 -120.5q0 -27 -8.5 -68.5t-36.5 -140.5l14 -2q79 208 150 292.5t159 84.5q59 0 92 -33t33 -92q0 -61 -35 -103t-85 -42q-32 0 -54 19.5t-22 45.5q0 58 35 96t102 52q-9 13 -24 19.5t-35 6.5
q-79 0 -137.5 -63.5t-139.5 -251.5q-65 -152 -104 -286.5t-39 -190.5q0 -34 17.5 -52t49.5 -18q78 0 160 87t152 243l28 -12q-78 -174 -172.5 -263.5t-199.5 -89.5q-92 0 -146.5 50t-54.5 133q0 50 47 192q10 29 14 43l-12 6q-91 -243 -165 -333.5t-173 -90.5
q-62 0 -97.5 35t-35.5 96q0 64 38 109t91 45q40 0 65 -26t25 -68q0 -60 -37.5 -95.5t-111.5 -45.5q14 -15 29 -21t34 -6q72 0 131 61.5t121 204.5q79 179 127.5 336t48.5 217q0 25 -14 37t-41 12q-87 0 -166 -86.5t-150 -257.5z" />
    <glyph glyph-name="y" unicode="y" horiz-adv-x="1053" 
d="M-51 559q68 192 137.5 269t169.5 77q77 0 125.5 -47.5t48.5 -124.5q0 -60 -92 -317l-14 -41q-42 -116 -60 -186t-18 -111q0 -34 17 -51t50 -17q112 0 202.5 174.5t238.5 720.5q24 -18 48.5 -27.5t49.5 -9.5q21 0 41.5 7.5t44.5 23.5l-252 -934q-43 -160 -169 -261
t-277 -101q-91 0 -143 41t-52 112q0 59 37 99.5t92 40.5q45 0 72.5 -27t27.5 -70q0 -50 -35 -78t-100 -28h-5q-16 2 -30 2q14 -31 43.5 -46.5t73.5 -15.5q103 0 169 81.5t124 285.5l80 281h-10q-62 -165 -133 -234.5t-177 -69.5q-88 0 -139 50.5t-51 138.5q0 72 77 286l7 19
q58 163 79 237t21 109q0 23 -16.5 37t-44.5 14q-56 0 -117.5 -85t-109.5 -232z" />
    <glyph glyph-name="z" unicode="z" horiz-adv-x="786" 
d="M41 172q1 -11 3.5 -41.5t2.5 -48.5q0 -45 -18.5 -71.5t-48.5 -26.5q-20 0 -29.5 14.5t-9.5 42.5q0 66 66 159.5t181 186.5q76 61 209.5 151t165.5 134q-7 -1 -15.5 -1.5t-23.5 -0.5q-41 0 -123.5 22.5t-121.5 22.5q-70 0 -112 -46t-73 -159l-24 4q54 201 112 287t137 86
q31 0 54 -16t43 -52q2 -4 5 -9q63 -114 118 -114q12 0 23.5 4t22.5 12q-3 23 -5 45t-2 36q0 40 17 65t44 25q17 0 27 -15.5t10 -42.5q0 -79 -73.5 -171.5t-229.5 -211.5q-61 -46 -185 -122t-153 -123q6 0 19 2q18 2 24 2q40 0 136.5 -24.5t150.5 -24.5q88 0 135 52t78 191
l26 -4q-54 -232 -111 -324t-141 -92q-37 0 -64 18t-63 70q-37 58 -73 83.5t-76 25.5h-23h-12z" />
    <glyph glyph-name="braceleft" unicode="{" 
d="M848 1516v-53q-136 -2 -186 -55t-50 -210v-141q0 -227 -59 -308.5t-217 -113.5q159 -32 217.5 -113.5t58.5 -308.5v-141q0 -157 49.5 -209t186.5 -54v-53h-10q-219 0 -301 74t-82 272v207q0 161 -59 221.5t-218 73.5v64q161 13 219 73.5t58 221.5v206q0 199 82 273
t301 74h10z" />
    <glyph glyph-name="bar" unicode="|" 
d="M438 1565h150v-2048h-150v2048z" />
    <glyph glyph-name="braceright" unicode="}" 
d="M176 1516h10q220 0 302.5 -74t82.5 -273v-206q0 -161 58 -221.5t219 -73.5v-64q-161 -13 -219 -73.5t-58 -221.5v-207q0 -198 -82.5 -272t-302.5 -74h-10v53q137 2 186.5 54.5t49.5 208.5v141q0 227 58.5 308.5t217.5 113.5q-158 32 -217 113.5t-59 308.5v141
q0 157 -50 210t-186 55v53z" />
    <glyph glyph-name="asciitilde" unicode="~" horiz-adv-x="1706" 
d="M1530 770v-156q-104 -72 -199 -106.5t-190 -34.5q-93 0 -256 58q-22 8 -34 12q-5 2 -15 5q-176 60 -273 60q-84 0 -175 -37t-210 -120v155q106 72 202 108t185 36q62 0 127.5 -13.5t163.5 -48.5q16 -5 47 -17q159 -57 240 -57q88 0 179.5 37t207.5 119z" />
    <glyph glyph-name="nonbreakingspace" unicode="&#xa0;" 
 />
    <glyph glyph-name="exclamdown" unicode="&#xa1;" horiz-adv-x="631" 
d="M586 1182q0 -53 -33 -88t-82 -35t-83 35.5t-34 87.5t34 86.5t83 34.5q48 0 81.5 -35t33.5 -86zM422 965q-68 -218 -93 -473.5t-28 -270.5q-19 -94 -81 -175t-103 -81q-36 0 -54 42.5t-18 125.5q0 95 144 358.5t210 479.5z" />
    <glyph glyph-name="cent" unicode="&#xa2;" 
d="M358 51l226 877q-53 -12 -99.5 -69t-91.5 -167q-60 -144 -95.5 -288.5t-35.5 -231.5q0 -61 21.5 -88t74.5 -33zM285 -260l67 278q-126 7 -199 93t-73 227q0 204 155.5 395.5t356.5 231.5l55 223l49 -8l-51 -211q83 -6 129.5 -55.5t46.5 -131.5q0 -67 -34 -109t-87 -42
q-34 0 -55.5 21.5t-21.5 56.5q0 42 30.5 73t73.5 31q9 0 17 -1t18 -3q0 11 2 22v3q0 47 -32 74.5t-87 27.5h-10l-223 -887q106 14 185 90.5t142 231.5l27 -13q-65 -159 -154 -243.5t-206 -98.5l-72 -284z" />
    <glyph glyph-name="sterling" unicode="&#xa3;" 
d="M229 186q-60 35 -117 53.5t-100 18.5q-78 0 -127 -36.5t-49 -94.5q0 -55 38.5 -89t98.5 -34q68 0 136 48t120 134zM276 151q-74 -89 -150.5 -135.5t-150.5 -46.5q-75 0 -123.5 43t-48.5 109q0 82 65 135t165 53q47 0 106.5 -15t124.5 -44q10 75 15.5 144t7.5 136h-207
l2 64h213v12q0 125 29.5 232.5t91.5 205.5q81 130 192.5 204.5t220.5 74.5q111 0 187 -76.5t76 -189.5q0 -81 -41 -134t-101 -53q-43 0 -70.5 28.5t-27.5 74.5q0 45 24 72t68 30q36 2 54 19t18 49q0 56 -57 101.5t-130 45.5q-133 0 -200.5 -124.5t-128.5 -565.5l211 -4v-57
l-224 -4q-20 -94 -58 -172t-97 -146q73 -30 137 -44.5t123 -14.5q134 0 220.5 59t137.5 186l27 -8q-47 -203 -144.5 -314.5t-228.5 -111.5q-110 0 -315 172q-8 7 -13 10z" />
    <glyph glyph-name="currency" unicode="&#xa4;" horiz-adv-x="1241" 
d="M623 1190q-126 0 -215 -89t-89 -214q0 -126 89 -215.5t215 -89.5q125 0 214 89.5t89 215.5q0 125 -89 214t-214 89zM162 1423l205 -204q57 43 120 64.5t134 21.5t134.5 -21.5t121.5 -64.5l204 204l82 -80l-205 -206q41 -55 61.5 -118t20.5 -134q0 -73 -20 -135.5
t-62 -116.5l205 -205l-82 -82l-204 205q-59 -44 -122 -65t-132 -21q-72 0 -135.5 21.5t-120.5 64.5l-205 -205l-82 82l207 205q-41 51 -62.5 116t-21.5 136q0 70 21 133t63 119l-207 206z" />
    <glyph glyph-name="yen" unicode="&#xa5;" horiz-adv-x="1165" 
d="M1313 1294v-28q-169 -11 -330 -252q-40 -59 -63 -92h243l-8 -33h-260q-58 -72 -193 -230l-36 -43h415l-8 -34h-438l-123 -469q-2 -10 -3 -19.5t-1 -17.5q0 -30 160 -37q74 -3 120 -6v-33q-113 4 -212 6t-179 2q-65 0 -160.5 -2t-209.5 -6v33q43 2 113 4q143 6 159 20
q28 25 143 513l2 11l-413 1l8 34h397l-65 273h-260l8 33h241l-65 260q-16 61 -137 65q-63 2 -105 5v28q30 -1 65.5 -1.5t106.5 -0.5q123 0 246 3t246 9v-28q-51 -5 -122 -7q-99 -4 -99 -34q2 -17 6 -41l119 -572q182 199 286.5 344t104.5 197q0 51 -50 82t-137 33v28
q17 0 50 -1q130 -3 178 -3q53 0 119 1.5t141 4.5z" />
    <glyph glyph-name="brokenbar" unicode="&#xa6;" 
d="M438 408h150v-758h-150v758zM438 1432h150v-758h-150v758z" />
    <glyph glyph-name="section" unicode="&#xa7;" horiz-adv-x="1090" 
d="M731 428q0 94 -102 197.5t-193 103.5q-61 0 -105 -43t-44 -100q0 -97 103.5 -200t191.5 -103q62 0 105.5 42t43.5 103zM115 -293q12 -40 45 -61t84 -21q109 0 188.5 83t79.5 198q0 97 -136 249q-21 23 -32 35q-83 96 -114 160t-31 131q0 112 75 196.5t172 84.5
q15 0 32 -3t46 -11q-64 64 -94.5 129.5t-30.5 140.5q0 149 106.5 262t248.5 113q93 0 151 -49.5t58 -126.5q0 -61 -29 -99.5t-74 -38.5q-34 0 -57 23.5t-23 58.5q0 38 26 65t81 48q-11 40 -46.5 63t-88.5 23q-104 0 -180 -78t-76 -184q0 -62 34 -122t111 -132
q115 -109 150.5 -172t35.5 -133q0 -120 -73 -204.5t-172 -84.5q-13 0 -29.5 3t-48.5 11q62 -63 91.5 -126.5t29.5 -133.5q0 -164 -115.5 -288t-267.5 -124q-91 0 -148 52.5t-57 132.5q0 60 36.5 102.5t86.5 42.5q36 0 60 -26t24 -66q0 -48 -32.5 -78.5t-96.5 -44.5z" />
    <glyph glyph-name="dieresis" unicode="&#xa8;" 
d="M819 1255q35 0 61.5 -25.5t26.5 -60.5q0 -37 -25 -62.5t-63 -25.5q-35 0 -60.5 25.5t-25.5 60.5t26 61.5t60 26.5zM477 1255q35 0 61.5 -25.5t26.5 -60.5q0 -38 -24.5 -63t-63.5 -25q-35 0 -60.5 26t-25.5 62q0 33 27 59.5t59 26.5z" />
    <glyph glyph-name="copyright" unicode="&#xa9;" horiz-adv-x="1683" 
d="M1122 1098h37l2 -316h-43q-32 135 -103 204t-177 69q-119 0 -179.5 -93.5t-60.5 -277.5q0 -187 66.5 -284t193.5 -97q84 0 153.5 44t127.5 132l39 -26q-61 -105 -148 -158t-199 -53q-173 0 -292 124t-119 304q0 183 118.5 307.5t290.5 124.5q75 0 149.5 -33t80.5 -33
q27 0 42 14.5t21 47.5zM844 1305q-123 0 -238 -49t-203 -138q-88 -90 -134 -202.5t-46 -237.5q0 -127 46.5 -239t136.5 -201q91 -90 201.5 -136.5t234.5 -46.5q126 0 237 46.5t199 136.5q89 90 136.5 204t47.5 236q0 123 -48 241t-134 203q-86 86 -201 134.5t-235 48.5z
M844 1391q138 0 269 -54.5t230 -152.5q100 -99 154.5 -232t54.5 -274q0 -140 -53.5 -269.5t-155.5 -232.5q-99 -101 -228 -155t-273 -54q-142 0 -270 53.5t-232 155.5q-103 102 -156 229t-53 273q0 141 53.5 270t155.5 232q100 101 230.5 156t273.5 55z" />
    <glyph glyph-name="ordfeminine" unicode="&#xaa;" horiz-adv-x="791" 
d="M147 733q59 0 108.5 50t100.5 163q55 118 83 196.5t28 112.5q0 43 -18.5 67t-51.5 24q-48 0 -89 -39.5t-87 -128.5q-59 -116 -97 -235t-38 -161q0 -26 14.5 -37.5t46.5 -11.5zM729 948q-47 -130 -99 -184.5t-126 -54.5q-63 0 -94 30t-31 90q0 25 8.5 70t26.5 113h-4
q-77 -176 -137.5 -237.5t-145.5 -61.5q-74 0 -118 49.5t-44 132.5q0 71 32 146t91 143q73 88 148 132t151 44q47 0 73.5 -25t26.5 -67q0 -17 -0.5 -25.5t-0.5 -15.5h3l52 125q11 -20 21 -25.5t26 -5.5q20 0 35 6t26 19l10 -3q-76 -212 -121.5 -368.5t-45.5 -200.5
q0 -22 9 -31.5t31 -9.5q49 0 93 54.5t86 166.5z" />
    <glyph glyph-name="guillemotleft" unicode="&#xab;" horiz-adv-x="895" 
d="M387 444l459 365l16 -18l-278 -359l84 -366l-23 -11zM-6 444l459 365l16 -18l-279 -359l84 -366l-22 -11z" />
    <glyph glyph-name="logicalnot" unicode="&#xac;" horiz-adv-x="1706" 
d="M254 860h1198v-502h-137v363h-1061v139z" />
    <glyph glyph-name="sfthyphen" unicode="&#xad;" horiz-adv-x="584" 
d="M18 518h455l-35 -143h-456z" />
    <glyph glyph-name="registered" unicode="&#xae;" horiz-adv-x="1683" 
d="M738 721q13 -1 28 -1.5t35 -0.5q105 0 163 45t58 127q0 72 -50 116t-134 44q-51 0 -76 -17.5t-25 -52.5zM467 1094h397q144 0 231 -54t87 -141q0 -83 -66 -131.5t-219 -75.5q95 -28 145 -76.5t70 -130.5q6 -23 11 -65q12 -88 57 -88q31 0 47 33.5t16 97.5h45v-19
q0 -84 -41 -129t-119 -45q-49 0 -84 16t-51 46q-20 37 -22 110t-8 97q-19 71 -66.5 105t-130.5 34h-29v-246q0 -51 25.5 -72t93.5 -27v-44h-389v44q69 4 95 25.5t26 73.5v516q0 53 -26 74.5t-95 26.5v45zM844 1305q-123 0 -238 -49t-203 -138q-88 -90 -134 -202.5
t-46 -237.5q0 -127 46.5 -239t136.5 -201q89 -90 199.5 -136.5t236.5 -46.5q125 0 237 47t199 136q88 90 135 203t47 237q0 125 -47.5 242t-132.5 202q-86 86 -201 134.5t-235 48.5zM844 1391q140 0 273 -56t233 -157q97 -99 149.5 -230.5t52.5 -275.5q0 -139 -56 -270
t-161 -234q-100 -99 -228 -150t-276 -51q-134 0 -261.5 54.5t-229.5 154.5q-102 101 -155.5 229t-53.5 273q0 142 53 270.5t154 231.5q100 101 231.5 156t274.5 55z" />
    <glyph glyph-name="macron" unicode="&#xaf;" 
d="M406 1223h512l-23 -109h-512z" />
    <glyph glyph-name="degree" unicode="&#xb0;" horiz-adv-x="674" 
d="M338 1362q-81 0 -138 -56t-57 -137t57 -138.5t138 -57.5t136.5 57.5t55.5 138.5t-55.5 137t-136.5 56zM338 1456q118 0 202.5 -84.5t84.5 -204.5q0 -119 -84 -202.5t-205 -83.5t-204 83t-83 203t85 204.5t204 84.5z" />
    <glyph glyph-name="plusminus" unicode="&#xb1;" horiz-adv-x="1706" 
d="M254 170h1198v-141h-1198v141zM782 1192h142v-340h528v-139h-528v-340h-142v340h-528v139h528v340z" />
    <glyph glyph-name="twosuperior" unicode="&#xb2;" horiz-adv-x="676" 
d="M526 750q-29 -116 -76.5 -174t-111.5 -58q-46 0 -126.5 51.5t-121.5 51.5q-23 0 -36 -8.5t-13 -22.5q0 -10 9 -27.5t9 -23.5q0 -11 -10 -16t-31 -5q-24 0 -32.5 5.5t-8.5 21.5q0 32 33 74.5t103 99.5q40 33 128 94t128 96q64 61 102.5 135.5t38.5 139.5q0 58 -35 91.5
t-96 33.5q-86 0 -149.5 -55.5t-63.5 -129.5q0 -17 3 -28t10 -19q4 1 9 1.5t13 0.5q26 0 42.5 -16.5t16.5 -42.5q0 -25 -17.5 -41t-43.5 -16q-39 0 -60.5 27.5t-21.5 76.5q0 105 82.5 184.5t195.5 79.5q102 0 167 -59.5t65 -151.5q0 -127 -302 -287q-37 -20 -57 -30
q-70 -38 -126 -81.5t-93 -88.5q31 6 50 8t36 2q44 0 95.5 -3t58.5 -3q128 0 163 23.5t56 91.5z" />
    <glyph glyph-name="threesuperior" unicode="&#xb3;" horiz-adv-x="676" 
d="M197 937q18 10 42.5 18.5t53.5 15.5q90 33 143 95.5t53 133.5q0 46 -27.5 73t-74.5 27q-49 0 -82 -26t-33 -66v-11q4 -3 13 -8q41 -22 41 -50q0 -24 -19.5 -42t-46.5 -18q-33 0 -52.5 19t-19.5 51q0 66 66.5 119t153.5 53t146.5 -46.5t59.5 -113.5q0 -62 -62 -108
t-206 -88v-4q95 -25 148 -81.5t53 -131.5q0 -103 -95 -174.5t-231 -71.5q-100 0 -159.5 48t-59.5 128q0 50 28.5 81.5t71.5 31.5q29 0 46.5 -15.5t17.5 -40.5q0 -30 -26 -48.5t-79 -25.5q-3 -8 -4.5 -15.5t-1.5 -14.5q0 -48 38 -78.5t97 -30.5q89 0 152.5 90t63.5 211
q0 59 -27 90t-78 31q-13 0 -45 -15t-49 -22z" />
    <glyph glyph-name="acute" unicode="&#xb4;" 
d="M823 1241l-272 -223h-55l262 301q30 34 46 44.5t32 10.5q20 0 34.5 -15.5t14.5 -37.5q0 -28 -53 -73q-5 -4 -9 -7z" />
    <glyph glyph-name="mu" unicode="&#xb5;" horiz-adv-x="1169" 
d="M166 195q-33 -143 -64 -355q-37 -260 -116 -260q-43 0 -65.5 24.5t-22.5 69.5q0 44 70 277t110 422l108 512h168l-100 -475q-9 -40 -13.5 -74.5t-4.5 -59.5q0 -70 41.5 -108.5t119.5 -38.5q97 0 154 54.5t82 172.5l112 529h173l-115 -532q-9 -43 -14 -75.5t-5 -52.5
q0 -48 26.5 -74t76.5 -26q44 0 81 25t58 69q13 27 27 73q17 56 39 56q9 0 15.5 -8t6.5 -21q0 -34 -13.5 -88t-35.5 -100q-39 -78 -92.5 -117t-122.5 -39q-81 0 -125.5 55t-44.5 154v13q-52 -115 -123 -168.5t-172 -53.5q-95 0 -151 56t-68 164z" />
    <glyph glyph-name="paragraph" unicode="&#xb6;" 
d="M958 1479v-86h-120v-1393h-111v1393h-176v-1393h-113v782q-170 8 -271 102.5t-101 245.5q0 157 107.5 253t285.5 96h499z" />
    <glyph glyph-name="glyph121" unicode="&#xb7;" horiz-adv-x="508" 
d="M113 647q0 49 35.5 85t84.5 36q51 0 86 -35t35 -86q0 -49 -36 -85t-85 -36q-48 0 -84 36.5t-36 84.5z" />
    <glyph glyph-name="cedilla" unicode="&#xb8;" 
d="M422 -12h53l-33 -109q8 1 21 2q34 2 45 2q76 0 122 -43.5t46 -115.5q0 -73 -58.5 -118.5t-152.5 -45.5q-52 0 -116 16t-159 53l27 64q63 -32 122 -50t99 -18q64 0 95.5 25t31.5 76q0 43 -31 67.5t-85 24.5q-20 0 -41.5 -2t-45.5 -6z" />
    <glyph glyph-name="onesuperior" unicode="&#xb9;" horiz-adv-x="676" 
d="M31 514v21q12 0 35 1q112 5 129 60l168 535q5 13 7.5 25t2.5 22q0 14 -15 19t-61 5l-109 2v23h27q99 0 169.5 22.5t125.5 71.5l31 -4l-51 -166q-160 -526 -160 -565q0 -43 124 -45h17v-20q-41 0 -81 0.5t-91 0.5q-66 0 -133 -2t-135 -6z" />
    <glyph glyph-name="ordmasculine" unicode="&#xba;" horiz-adv-x="676" 
d="M379 1346q-57 0 -96 -40t-82 -147q-41 -100 -63.5 -190.5t-22.5 -149.5q0 -50 21 -74t65 -24q53 0 90 34t74 122q44 107 69 209t25 171q0 46 -19.5 67.5t-60.5 21.5zM383 1366q92 0 149.5 -69.5t57.5 -180.5q0 -158 -121 -287t-266 -129q-104 0 -165 61t-61 165
q0 93 42 179.5t120 154.5q59 52 121 79t123 27z" />
    <glyph glyph-name="guillemotright" unicode="&#xbb;" horiz-adv-x="895" 
d="M764 418l-459 -363l-16 19l278 358l-82 367l23 10zM371 418l-459 -363l-16 19l278 358l-82 367l23 10z" />
    <glyph glyph-name="onequarter" unicode="&#xbc;" horiz-adv-x="1632" 
d="M1307 268l131 357q-136 -114 -231.5 -198.5t-172.5 -158.5h273zM1282 213h-125q-48 0 -90.5 -1t-87.5 -3v37q155 146 351 314.5t218 189.5l45 -7q-16 -56 -38.5 -122t-59.5 -168l-70 -185h156l-14 -53h-164l-53 -153q-2 -5 -3 -10t-1 -11q0 -18 75 -20q44 -1 72 -3v-18
q-52 2 -101.5 3t-113.5 1q-29 0 -127 -2q-49 -1 -78 -2v18q123 6 133 12.5t23 41.5zM377 -29h-74l950 1352h74zM29 565v19q9 0 27 1q114 6 130 56l160 500q5 14 7.5 25t2.5 18q0 13 -11.5 17.5t-61.5 6.5l-105 2v21h27q95 0 163 21t119 67l29 -4l-42 -136
q-159 -510 -159 -546q0 -40 131 -43h5l-1 -19q-40 1 -78 1.5t-87 0.5q-63 0 -127 -2t-129 -6z" />
    <glyph glyph-name="onehalf" unicode="&#xbd;" horiz-adv-x="1632" 
d="M1489 215q-28 -107 -73 -161t-105 -54q-44 0 -121.5 47t-116.5 47q-22 0 -33.5 -6.5t-11.5 -19.5q0 -10 8 -26.5t8 -23.5q0 -9 -10.5 -13.5t-29.5 -4.5q-22 0 -30.5 5.5t-8.5 19.5q0 30 30.5 68.5t100.5 94.5q35 29 118.5 86t122.5 93q63 55 100.5 124.5t37.5 129.5
q0 55 -33.5 86.5t-91.5 31.5q-82 0 -143.5 -51.5t-61.5 -120.5q0 -17 3 -27.5t9 -17.5q6 0 12.5 1t8.5 1q25 0 41 -15.5t16 -39.5t-16 -39.5t-41 -15.5q-38 0 -59 26t-21 72q0 97 79.5 171.5t186.5 74.5q97 0 159 -55.5t62 -141.5q0 -116 -283 -266q-39 -20 -59 -31
q-65 -34 -118.5 -73.5t-90.5 -81.5q4 0 11 1q50 7 71 7q42 0 91 -3t57 -3q123 0 156 22t53 84zM377 -29h-74l950 1352h74zM29 565v19q9 0 27 1q114 6 130 56l160 500q5 14 7.5 25t2.5 18q0 13 -11.5 17.5t-61.5 6.5l-105 2v21h27q95 0 163 21t119 67l29 -4l-42 -136
q-159 -510 -159 -546q0 -40 131 -43h5l-1 -19q-40 1 -78 1.5t-87 0.5q-63 0 -127 -2t-129 -6z" />
    <glyph glyph-name="threequarters" unicode="&#xbe;" horiz-adv-x="1632" 
d="M1307 268l131 357q-136 -114 -231.5 -198.5t-172.5 -158.5h273zM1282 213h-125q-48 0 -90.5 -1t-87.5 -3v37q155 146 351 314.5t218 189.5l45 -7q-16 -56 -38.5 -122t-59.5 -168l-70 -185h156l-14 -53h-164l-53 -153q-2 -5 -3 -10t-1 -11q0 -18 75 -20q44 -1 72 -3v-18
q-52 2 -101.5 3t-113.5 1q-29 0 -127 -2q-49 -1 -78 -2v18q123 6 133 12.5t23 41.5zM377 -29h-74l950 1352h74zM186 963q25 10 48 17t47 11q85 31 135.5 89.5t50.5 125.5q0 43 -26 67.5t-70 24.5q-49 0 -80 -24t-31 -62v-9q6 -4 16 -10q35 -19 35 -44q0 -23 -18.5 -39
t-44.5 -16q-31 0 -49.5 17.5t-18.5 47.5q0 60 63.5 110t145.5 50q85 0 141 -43t56 -107q0 -59 -60.5 -102t-195.5 -80v-4q90 -23 141 -76t51 -125q0 -95 -91 -162t-220 -67q-96 0 -152.5 45.5t-56.5 120.5q0 46 26.5 75t67.5 29q29 0 45.5 -13.5t16.5 -37.5q0 -29 -25 -46
t-76 -24q-2 -5 -3 -11t-1 -15q0 -46 36 -74.5t93 -28.5q85 0 145 84t60 197q0 54 -26 83.5t-74 29.5q-10 0 -40 -13.5t-50 -19.5z" />
    <glyph glyph-name="questiondown" unicode="&#xbf;" horiz-adv-x="764" 
d="M678 1217q0 -49 -32 -83t-77 -34q-46 0 -77 33.5t-31 83.5q0 48 31.5 81t76.5 33t77 -33.5t32 -80.5zM285 729q33 122 90 192t121 70q49 0 73.5 -26t24.5 -78q0 -138 -167 -309q-51 -52 -73 -78q-67 -82 -113 -206.5t-46 -205.5q0 -45 16.5 -65.5t52.5 -20.5
q87 0 156 116.5t102 323.5l31 -4q-38 -230 -117.5 -350.5t-193.5 -120.5q-86 0 -137.5 67.5t-51.5 180.5q0 120 61 213.5t185 165.5q20 11 61 33q201 106 201 252q0 38 -17.5 60t-49.5 22q-55 0 -103.5 -63.5t-79.5 -176.5z" />
    <glyph glyph-name="Agrave" unicode="&#xc0;" horiz-adv-x="1346" 
d="M362 440l355 -6l18 527zM-162 0v32q81 2 141.5 27t104.5 74q98 111 347 458t525 769h48q-27 -353 -40.5 -668t-13.5 -563q0 -60 10.5 -72.5t224.5 -23.5l1 -33q-92 2 -178 3t-187 1q-99 0 -177.5 -1t-160.5 -3v33q36 2 91 4q128 6 131 70l10 282l-385 8l-102 -140
q-2 -3 -7 -10q-37 -53 -37 -97q0 -63 47 -90t158 -27v-33q-66 2 -129 3t-141 1q-79 0 -144.5 -1t-136.5 -3zM907 1786l199 -281h-55l-224 221l-15 15q-46 45 -46 71q0 22 14.5 35.5t38.5 13.5q34 0 80 -64q5 -7 8 -11z" />
    <glyph glyph-name="Aacute" unicode="&#xc1;" horiz-adv-x="1346" 
d="M362 440l355 -6l18 527zM-162 0v32q81 2 141.5 27t104.5 74q98 111 347 458t525 769h48q-27 -353 -40.5 -668t-13.5 -563q0 -60 10.5 -72.5t224.5 -23.5l1 -33q-92 2 -178 3t-187 1q-99 0 -177.5 -1t-160.5 -3v33q36 2 91 4q128 6 131 70l10 282l-385 8l-102 -140
q-2 -3 -7 -10q-37 -53 -37 -97q0 -63 47 -90t158 -27v-33q-66 2 -129 3t-141 1q-79 0 -144.5 -1t-136.5 -3zM1163 1728l-272 -223h-55l262 301q30 34 46 44.5t32 10.5q20 0 34.5 -15.5t14.5 -37.5q0 -28 -53 -73q-5 -4 -9 -7z" />
    <glyph glyph-name="Acircumflex" unicode="&#xc2;" horiz-adv-x="1346" 
d="M362 440l355 -6l18 527zM-162 0v32q81 2 141.5 27t104.5 74q98 111 347 458t525 769h48q-27 -353 -40.5 -668t-13.5 -563q0 -60 10.5 -72.5t224.5 -23.5l1 -33q-92 2 -178 3t-187 1q-99 0 -177.5 -1t-160.5 -3v33q36 2 91 4q128 6 131 70l10 282l-385 8l-102 -140
q-2 -3 -7 -10q-37 -53 -37 -97q0 -63 47 -90t158 -27v-33q-66 2 -129 3t-141 1q-79 0 -144.5 -1t-136.5 -3zM969 1853h106l154 -348h-43l-174 244l-271 -244h-53z" />
    <glyph glyph-name="Atilde" unicode="&#xc3;" horiz-adv-x="1346" 
d="M362 440l355 -6l18 527zM-162 0v32q81 2 141.5 27t104.5 74q98 111 347 458t525 769h48q-27 -353 -40.5 -668t-13.5 -563q0 -60 10.5 -72.5t224.5 -23.5l1 -33q-92 2 -178 3t-187 1q-99 0 -177.5 -1t-160.5 -3v33q36 2 91 4q128 6 131 70l10 282l-385 8l-102 -140
q-2 -3 -7 -10q-37 -53 -37 -97q0 -63 47 -90t158 -27v-33q-66 2 -129 3t-141 1q-79 0 -144.5 -1t-136.5 -3zM1239 1773h41q-24 -93 -65 -137.5t-103 -44.5q-16 0 -31 2t-30 6l-133 35q-25 6 -42.5 9t-31.5 3q-39 0 -63.5 -20t-34.5 -60h-39q18 90 58 132t105 42q14 0 34 -3
t44 -9l138 -35q16 -3 28.5 -4.5t22.5 -1.5q39 0 64.5 21.5t37.5 64.5z" />
    <glyph glyph-name="Adieresis" unicode="&#xc4;" horiz-adv-x="1346" 
d="M362 440l355 -6l18 527zM-162 0v32q81 2 141.5 27t104.5 74q98 111 347 458t525 769h48q-27 -353 -40.5 -668t-13.5 -563q0 -60 10.5 -72.5t224.5 -23.5l1 -33q-92 2 -178 3t-187 1q-99 0 -177.5 -1t-160.5 -3v33q36 2 91 4q128 6 131 70l10 282l-385 8l-102 -140
q-2 -3 -7 -10q-37 -53 -37 -97q0 -63 47 -90t158 -27v-33q-66 2 -129 3t-141 1q-79 0 -144.5 -1t-136.5 -3zM1159 1742q35 0 61.5 -25.5t26.5 -60.5q0 -37 -25 -62.5t-63 -25.5q-35 0 -60.5 25.5t-25.5 60.5t26 61.5t60 26.5zM817 1742q35 0 61.5 -25.5t26.5 -60.5
q0 -38 -24.5 -63t-63.5 -25q-35 0 -60.5 26t-25.5 62q0 33 27 59.5t59 26.5z" />
    <glyph glyph-name="Aring" unicode="&#xc5;" horiz-adv-x="1346" 
d="M1008 1860q-66 0 -112 -47t-46 -113q0 -67 45 -111.5t113 -44.5q66 0 111.5 45t45.5 111t-46 113t-111 47zM1008 1933q97 0 165 -67.5t68 -163.5q0 -97 -68.5 -166.5t-164.5 -69.5q-98 0 -166 68.5t-68 167.5q0 98 67.5 164.5t166.5 66.5zM362 440l355 -6l18 527zM-162 0
v32q81 2 141.5 27t104.5 74q98 111 347 458t525 769h48q-27 -353 -40.5 -668t-13.5 -563q0 -60 10.5 -72.5t224.5 -23.5l1 -33q-92 2 -178 3t-187 1q-99 0 -177.5 -1t-160.5 -3v33q36 2 91 4q128 6 131 70l10 282l-385 8l-102 -140q-2 -3 -7 -10q-37 -53 -37 -97
q0 -63 47 -90t158 -27v-33q-66 2 -129 3t-141 1q-79 0 -144.5 -1t-136.5 -3z" />
    <glyph glyph-name="AE" unicode="&#xc6;" horiz-adv-x="2134" 
d="M950 692q64 240 102.5 395t51.5 218l-37 8l-475 -617zM-133 -4v47q81 2 120.5 10.5t61.5 26.5q12 10 83.5 94t180.5 217q113 140 239.5 306t260.5 350q77 107 98 145.5t21 62.5q0 36 -45.5 50t-181.5 14v35h36q78 0 209 -5.5t183 -5.5q75 0 236 5.5t247 5.5
q69 0 211.5 -5.5t216.5 -5.5h61l-141 -501h-20q0 15 1 44q3 68 3 89q0 121 -12.5 188.5t-39.5 100.5q-26 31 -92.5 44t-236.5 13q-38 0 -80 -1.5t-118 -6.5l-165 -588q18 -1 54 -3.5t55 -2.5q138 0 215.5 70t134.5 251l27 -4q-63 -186 -113 -374t-88 -381h-29
q14 67 20.5 113t6.5 81q0 115 -57.5 164t-194.5 49h-41l-156 -561q-4 -14 -6 -25t-2 -20q0 -27 65.5 -37t252.5 -10q157 0 237 25.5t139 86.5q62 64 116.5 152t103.5 205h18q-37 -142 -68 -266.5t-55 -229.5q-17 1 -48 2q-79 2 -108 2q-33 0 -145 -5t-190 -5q-72 0 -222.5 5
t-228.5 5q-90 0 -189 -3t-206 -9v33q52 5 115.5 13.5t146.5 21.5q53 169 97.5 317.5t76.5 263.5l-381 2l-190 -245q-61 -78 -91 -141t-30 -111q0 -58 45.5 -86.5t150.5 -34.5v-33q-84 6 -144 9t-99 3q-43 0 -154 -8t-178 -8z" />
    <glyph glyph-name="Ccedilla" unicode="&#xc7;" horiz-adv-x="1341" 
d="M1135 475q-68 -256 -202 -382t-339 -126q-219 0 -364.5 156.5t-145.5 392.5q0 165 70.5 320.5t210.5 298.5q120 123 250 191.5t241 68.5q102 0 177 -53.5t116 -155.5q52 40 93 92t73 119l31 -2l-179 -664l-20 5q3 54 4.5 93.5t1.5 63.5q0 230 -74.5 349.5t-218.5 119.5
q-102 0 -187.5 -72t-158.5 -219q-86 -173 -138 -376.5t-52 -358.5q0 -163 73.5 -248.5t214.5 -85.5q182 0 303.5 119t186.5 360zM569 -12h53l-33 -109q8 1 21 2q34 2 45 2q76 0 122 -43.5t46 -115.5q0 -73 -58.5 -118.5t-152.5 -45.5q-52 0 -116 16t-159 53l27 64
q63 -32 122 -50t99 -18q64 0 95.5 25t31.5 76q0 43 -31 67.5t-85 24.5q-20 0 -41.5 -2t-45.5 -6z" />
    <glyph glyph-name="Egrave" unicode="&#xc8;" horiz-adv-x="1493" 
d="M-145 0v33q55 4 121.5 12.5t150.5 22.5q142 458 239 809t97 389q0 32 -237 56q-31 3 -47 5l-1 33q123 -8 216.5 -11t174.5 -3q57 0 192.5 4t215.5 4q67 0 208 -5.5t216 -5.5h63l-141 -501h-18q0 15 1 44q3 68 3 89q0 228 -53.5 287t-311.5 59q-37 0 -81 -1.5t-126 -7.5
l-163 -587q30 -3 55.5 -4.5t46.5 -1.5q135 0 211.5 70t134.5 251l29 -4q-65 -189 -115.5 -377.5t-87.5 -377.5h-27q13 59 19 107t6 87q0 117 -56.5 165t-195.5 48h-31l-153 -561q-7 -21 -9 -30t-2 -15q0 -27 64.5 -37t249.5 -10q152 0 232.5 26t139.5 86q61 62 114.5 150
t103.5 207h18q-37 -142 -68 -266.5t-55 -229.5q-17 1 -48 2q-79 2 -108 2q-33 0 -145 -5t-190 -5q-71 0 -220 6t-227 6q-74 0 -166 -3t-239 -11zM897 1786l199 -281h-55l-224 221l-15 15q-46 45 -46 71q0 22 14.5 35.5t38.5 13.5q34 0 80 -64q5 -7 8 -11z" />
    <glyph glyph-name="Eacute" unicode="&#xc9;" horiz-adv-x="1493" 
d="M-145 0v33q55 4 121.5 12.5t150.5 22.5q142 458 239 809t97 389q0 32 -237 56q-31 3 -47 5l-1 33q123 -8 216.5 -11t174.5 -3q57 0 192.5 4t215.5 4q67 0 208 -5.5t216 -5.5h63l-141 -501h-18q0 15 1 44q3 68 3 89q0 228 -53.5 287t-311.5 59q-37 0 -81 -1.5t-126 -7.5
l-163 -587q30 -3 55.5 -4.5t46.5 -1.5q135 0 211.5 70t134.5 251l29 -4q-65 -189 -115.5 -377.5t-87.5 -377.5h-27q13 59 19 107t6 87q0 117 -56.5 165t-195.5 48h-31l-153 -561q-7 -21 -9 -30t-2 -15q0 -27 64.5 -37t249.5 -10q152 0 232.5 26t139.5 86q61 62 114.5 150
t103.5 207h18q-37 -142 -68 -266.5t-55 -229.5q-17 1 -48 2q-79 2 -108 2q-33 0 -145 -5t-190 -5q-71 0 -220 6t-227 6q-74 0 -166 -3t-239 -11zM1153 1728l-272 -223h-55l262 301q30 34 46 44.5t32 10.5q20 0 34.5 -15.5t14.5 -37.5q0 -28 -53 -73q-5 -4 -9 -7z" />
    <glyph glyph-name="Ecircumflex" unicode="&#xca;" horiz-adv-x="1493" 
d="M-145 0v33q55 4 121.5 12.5t150.5 22.5q142 458 239 809t97 389q0 32 -237 56q-31 3 -47 5l-1 33q123 -8 216.5 -11t174.5 -3q57 0 192.5 4t215.5 4q67 0 208 -5.5t216 -5.5h63l-141 -501h-18q0 15 1 44q3 68 3 89q0 228 -53.5 287t-311.5 59q-37 0 -81 -1.5t-126 -7.5
l-163 -587q30 -3 55.5 -4.5t46.5 -1.5q135 0 211.5 70t134.5 251l29 -4q-65 -189 -115.5 -377.5t-87.5 -377.5h-27q13 59 19 107t6 87q0 117 -56.5 165t-195.5 48h-31l-153 -561q-7 -21 -9 -30t-2 -15q0 -27 64.5 -37t249.5 -10q152 0 232.5 26t139.5 86q61 62 114.5 150
t103.5 207h18q-37 -142 -68 -266.5t-55 -229.5q-17 1 -48 2q-79 2 -108 2q-33 0 -145 -5t-190 -5q-71 0 -220 6t-227 6q-74 0 -166 -3t-239 -11zM959 1853h106l154 -348h-43l-174 244l-271 -244h-53z" />
    <glyph glyph-name="Edieresis" unicode="&#xcb;" horiz-adv-x="1493" 
d="M-145 0v33q55 4 121.5 12.5t150.5 22.5q142 458 239 809t97 389q0 32 -237 56q-31 3 -47 5l-1 33q123 -8 216.5 -11t174.5 -3q57 0 192.5 4t215.5 4q67 0 208 -5.5t216 -5.5h63l-141 -501h-18q0 15 1 44q3 68 3 89q0 228 -53.5 287t-311.5 59q-37 0 -81 -1.5t-126 -7.5
l-163 -587q30 -3 55.5 -4.5t46.5 -1.5q135 0 211.5 70t134.5 251l29 -4q-65 -189 -115.5 -377.5t-87.5 -377.5h-27q13 59 19 107t6 87q0 117 -56.5 165t-195.5 48h-31l-153 -561q-7 -21 -9 -30t-2 -15q0 -27 64.5 -37t249.5 -10q152 0 232.5 26t139.5 86q61 62 114.5 150
t103.5 207h18q-37 -142 -68 -266.5t-55 -229.5q-17 1 -48 2q-79 2 -108 2q-33 0 -145 -5t-190 -5q-71 0 -220 6t-227 6q-74 0 -166 -3t-239 -11zM1149 1742q35 0 61.5 -25.5t26.5 -60.5q0 -37 -25 -62.5t-63 -25.5q-35 0 -60.5 25.5t-25.5 60.5t26 61.5t60 26.5zM807 1742
q35 0 61.5 -25.5t26.5 -60.5q0 -38 -24.5 -63t-63.5 -25q-35 0 -60.5 26t-25.5 62q0 33 27 59.5t59 26.5z" />
    <glyph glyph-name="Igrave" unicode="&#xcc;" horiz-adv-x="887" 
d="M203 1362q50 -1 142 -4q182 -4 239 -4q106 0 367 7q33 0 50 1v-35q-34 -1 -89 -1q-169 -3 -197 -101q-122 -427 -208.5 -771t-86.5 -376q0 -36 178 -42q53 -2 84 -4v-31q-139 2 -246.5 3.5t-181.5 1.5q-48 0 -137 -1.5t-221 -4.5v33h8q189 6 217 24q19 12 45 104
q7 22 10 33q116 400 198.5 725.5t82.5 356.5q0 41 -135 46q-71 2 -119 5v35zM596 1786l199 -281h-55l-224 221l-15 15q-46 45 -46 71q0 22 14.5 35.5t38.5 13.5q34 0 80 -64q5 -7 8 -11z" />
    <glyph glyph-name="Iacute" unicode="&#xcd;" horiz-adv-x="887" 
d="M203 1362q50 -1 142 -4q182 -4 239 -4q106 0 367 7q33 0 50 1v-35q-34 -1 -89 -1q-169 -3 -197 -101q-122 -427 -208.5 -771t-86.5 -376q0 -36 178 -42q53 -2 84 -4v-31q-139 2 -246.5 3.5t-181.5 1.5q-48 0 -137 -1.5t-221 -4.5v33h8q189 6 217 24q19 12 45 104
q7 22 10 33q116 400 198.5 725.5t82.5 356.5q0 41 -135 46q-71 2 -119 5v35zM852 1728l-272 -223h-55l262 301q30 34 46 44.5t32 10.5q20 0 34.5 -15.5t14.5 -37.5q0 -28 -53 -73q-5 -4 -9 -7z" />
    <glyph glyph-name="Icircumflex" unicode="&#xce;" horiz-adv-x="887" 
d="M203 1362q50 -1 142 -4q182 -4 239 -4q106 0 367 7q33 0 50 1v-35q-34 -1 -89 -1q-169 -3 -197 -101q-122 -427 -208.5 -771t-86.5 -376q0 -36 178 -42q53 -2 84 -4v-31q-139 2 -246.5 3.5t-181.5 1.5q-48 0 -137 -1.5t-221 -4.5v33h8q189 6 217 24q19 12 45 104
q7 22 10 33q116 400 198.5 725.5t82.5 356.5q0 41 -135 46q-71 2 -119 5v35zM658 1853h106l154 -348h-43l-174 244l-271 -244h-53z" />
    <glyph glyph-name="Idieresis" unicode="&#xcf;" horiz-adv-x="887" 
d="M203 1362q50 -1 142 -4q182 -4 239 -4q106 0 367 7q33 0 50 1v-35q-34 -1 -89 -1q-169 -3 -197 -101q-122 -427 -208.5 -771t-86.5 -376q0 -36 178 -42q53 -2 84 -4v-31q-139 2 -246.5 3.5t-181.5 1.5q-48 0 -137 -1.5t-221 -4.5v33h8q189 6 217 24q19 12 45 104
q7 22 10 33q116 400 198.5 725.5t82.5 356.5q0 41 -135 46q-71 2 -119 5v35zM848 1742q35 0 61.5 -25.5t26.5 -60.5q0 -37 -25 -62.5t-63 -25.5q-35 0 -60.5 25.5t-25.5 60.5t26 61.5t60 26.5zM506 1742q35 0 61.5 -25.5t26.5 -60.5q0 -38 -24.5 -63t-63.5 -25
q-35 0 -60.5 26t-25.5 62q0 33 27 59.5t59 26.5z" />
    <glyph glyph-name="Eth" unicode="&#xd0;" horiz-adv-x="1554" 
d="M748 1323q-46 -151 -87 -300.5t-77 -297.5h323l-14 -51h-322q-33 -129 -66.5 -270t-80.5 -353q61 -12 114.5 -18t98.5 -6q141 0 233.5 60.5t169.5 205.5q83 152 134 343.5t51 352.5q0 182 -82 264t-262 82q-34 0 -66.5 -3t-66.5 -9zM-96 -2v33q28 2 76 5q163 10 184 54
q13 29 67.5 235.5t94.5 348.5h-312l15 51h309q76 284 106.5 408t30.5 147q0 43 -136 47q-71 2 -115 4l-1 33q49 -2 103.5 -3t152.5 -1q119 0 253 4t149 4q260 0 416.5 -156t156.5 -413q0 -197 -93 -368.5t-265 -293.5q-104 -74 -209 -108.5t-230 -34.5q-45 0 -182.5 6
t-230.5 6q-58 0 -146 -2t-194 -6z" />
    <glyph glyph-name="Ntilde" unicode="&#xd1;" horiz-adv-x="1550" 
d="M-117 29q165 0 239.5 60.5t121.5 250.5l129 520q27 109 43 192.5t16 108.5q0 62 -58 110t-145 48h-41v35h242q80 0 121.5 1.5t76.5 4.5l496 -1026q106 362 161.5 581t55.5 273q0 64 -54 106.5t-142 42.5q-1 0 -7 1q-19 1 -38 1v25q24 0 70.5 -1t68.5 -1q91 0 194.5 3.5
t233.5 10.5v-28q-98 -3 -165.5 -36t-92.5 -89q-15 -35 -107 -371t-221 -829l-65 -15l-541 1139l-201 -824q-1 -6 -5 -20q-19 -71 -19 -104q0 -89 62 -129.5t200 -40.5v-29q-132 3 -208 4.5t-105 1.5q-56 0 -134.5 -1.5t-180.5 -4.5zM1251 1773h41q-24 -93 -65 -137.5
t-103 -44.5q-16 0 -31 2t-30 6l-133 35q-25 6 -42.5 9t-31.5 3q-39 0 -63.5 -20t-34.5 -60h-39q18 90 58 132t105 42q14 0 34 -3t44 -9l138 -35q16 -3 28.5 -4.5t22.5 -1.5q39 0 64.5 21.5t37.5 64.5z" />
    <glyph glyph-name="Ograve" unicode="&#xd2;" horiz-adv-x="1374" 
d="M1077 1090q0 126 -66 198t-184 72q-101 0 -179 -65.5t-144 -207.5q-96 -207 -153.5 -438t-57.5 -387q0 -124 61 -192t172 -68q114 0 195 69.5t156 235.5q91 203 145.5 418t54.5 365zM1307 840q0 -182 -92 -365t-254 -323q-100 -87 -213 -136t-211 -49q-200 0 -331.5 157
t-131.5 400q0 168 67 331.5t189 293.5q112 118 239.5 181t253.5 63q208 0 346 -157.5t138 -395.5zM854 1786l199 -281h-55l-224 221l-15 15q-46 45 -46 71q0 22 14.5 35.5t38.5 13.5q34 0 80 -64q5 -7 8 -11z" />
    <glyph glyph-name="Oacute" unicode="&#xd3;" horiz-adv-x="1374" 
d="M1077 1090q0 126 -66 198t-184 72q-101 0 -179 -65.5t-144 -207.5q-96 -207 -153.5 -438t-57.5 -387q0 -124 61 -192t172 -68q114 0 195 69.5t156 235.5q91 203 145.5 418t54.5 365zM1307 840q0 -182 -92 -365t-254 -323q-100 -87 -213 -136t-211 -49q-200 0 -331.5 157
t-131.5 400q0 168 67 331.5t189 293.5q112 118 239.5 181t253.5 63q208 0 346 -157.5t138 -395.5zM1110 1728l-272 -223h-55l262 301q30 34 46 44.5t32 10.5q20 0 34.5 -15.5t14.5 -37.5q0 -28 -53 -73q-5 -4 -9 -7z" />
    <glyph glyph-name="Ocircumflex" unicode="&#xd4;" horiz-adv-x="1374" 
d="M1077 1090q0 126 -66 198t-184 72q-101 0 -179 -65.5t-144 -207.5q-96 -207 -153.5 -438t-57.5 -387q0 -124 61 -192t172 -68q114 0 195 69.5t156 235.5q91 203 145.5 418t54.5 365zM1307 840q0 -182 -92 -365t-254 -323q-100 -87 -213 -136t-211 -49q-200 0 -331.5 157
t-131.5 400q0 168 67 331.5t189 293.5q112 118 239.5 181t253.5 63q208 0 346 -157.5t138 -395.5zM916 1853h106l154 -348h-43l-174 244l-271 -244h-53z" />
    <glyph glyph-name="Otilde" unicode="&#xd5;" horiz-adv-x="1374" 
d="M1077 1090q0 126 -66 198t-184 72q-101 0 -179 -65.5t-144 -207.5q-96 -207 -153.5 -438t-57.5 -387q0 -124 61 -192t172 -68q114 0 195 69.5t156 235.5q91 203 145.5 418t54.5 365zM1307 840q0 -182 -92 -365t-254 -323q-100 -87 -213 -136t-211 -49q-200 0 -331.5 157
t-131.5 400q0 168 67 331.5t189 293.5q112 118 239.5 181t253.5 63q208 0 346 -157.5t138 -395.5zM1186 1773h41q-24 -93 -65 -137.5t-103 -44.5q-16 0 -31 2t-30 6l-133 35q-25 6 -42.5 9t-31.5 3q-39 0 -63.5 -20t-34.5 -60h-39q18 90 58 132t105 42q14 0 34 -3t44 -9
l138 -35q16 -3 28.5 -4.5t22.5 -1.5q39 0 64.5 21.5t37.5 64.5z" />
    <glyph glyph-name="Odieresis" unicode="&#xd6;" horiz-adv-x="1374" 
d="M1077 1090q0 126 -66 198t-184 72q-101 0 -179 -65.5t-144 -207.5q-96 -207 -153.5 -438t-57.5 -387q0 -124 61 -192t172 -68q114 0 195 69.5t156 235.5q91 203 145.5 418t54.5 365zM1307 840q0 -182 -92 -365t-254 -323q-100 -87 -213 -136t-211 -49q-200 0 -331.5 157
t-131.5 400q0 168 67 331.5t189 293.5q112 118 239.5 181t253.5 63q208 0 346 -157.5t138 -395.5zM1106 1742q35 0 61.5 -25.5t26.5 -60.5q0 -37 -25 -62.5t-63 -25.5q-35 0 -60.5 25.5t-25.5 60.5t26 61.5t60 26.5zM764 1742q35 0 61.5 -25.5t26.5 -60.5q0 -38 -24.5 -63
t-63.5 -25q-35 0 -60.5 26t-25.5 62q0 33 27 59.5t59 26.5z" />
    <glyph glyph-name="multiply" unicode="&#xd7;" horiz-adv-x="1706" 
d="M391 1178l469 -469l469 469l98 -99l-469 -469l469 -469l-98 -96l-469 467l-469 -467l-98 96l469 469l-469 469z" />
    <glyph glyph-name="Oslash" unicode="&#xd8;" horiz-adv-x="1374" 
d="M299 201l733 1061q-35 48 -86.5 73t-118.5 25q-101 0 -179 -65.5t-144 -207.5q-96 -205 -152.5 -430t-56.5 -381q0 -19 4 -69v-6zM311 150q23 -72 78.5 -110t136.5 -38q114 0 195 69.5t156 235.5q90 200 145 416t55 348q0 44 -5.5 80.5t-16.5 69.5zM92 -88l137 190
q-76 79 -115.5 185.5t-39.5 236.5q0 168 67 331.5t189 293.5q112 118 238.5 181t252.5 63q71 0 134.5 -19t119.5 -57l121 174l37 -23l-121 -178q95 -84 145 -199t50 -251q0 -182 -92.5 -365.5t-253.5 -322.5q-104 -89 -215 -137t-214 -48q-75 0 -141.5 26t-130.5 81
l-133 -189z" />
    <glyph glyph-name="Ugrave" unicode="&#xd9;" horiz-adv-x="1479" 
d="M179 1327v33q114 -3 229 -4.5t231 -1.5q22 0 100.5 1.5t212.5 4.5v-29q-136 -10 -176 -17t-53 -18q-12 -10 -26.5 -49.5t-45.5 -146.5l-190 -651q-20 -71 -31.5 -134.5t-11.5 -101.5q0 -99 60 -152t171 -53q183 0 305.5 127.5t184.5 382.5l94 391q21 90 32 156t11 106
q0 78 -51 116t-166 44v27q75 -3 146 -4.5t138 -1.5q58 0 145 3.5t111 4.5v-39h-18q-214 0 -326 -447q-11 -40 -16 -61q-14 -57 -39 -162q-82 -347 -160 -458q-76 -110 -190.5 -168t-253.5 -58q-172 0 -289 116.5t-117 283.5q0 40 2 72l1 3l225 736q11 38 15.5 58t4.5 32
q0 45 -148 53q-69 3 -111 6zM942 1786l199 -281h-55l-224 221l-15 15q-46 45 -46 71q0 22 14.5 35.5t38.5 13.5q34 0 80 -64q5 -7 8 -11z" />
    <glyph glyph-name="Uacute" unicode="&#xda;" horiz-adv-x="1479" 
d="M179 1327v33q114 -3 229 -4.5t231 -1.5q22 0 100.5 1.5t212.5 4.5v-29q-136 -10 -176 -17t-53 -18q-12 -10 -26.5 -49.5t-45.5 -146.5l-190 -651q-20 -71 -31.5 -134.5t-11.5 -101.5q0 -99 60 -152t171 -53q183 0 305.5 127.5t184.5 382.5l94 391q21 90 32 156t11 106
q0 78 -51 116t-166 44v27q75 -3 146 -4.5t138 -1.5q58 0 145 3.5t111 4.5v-39h-18q-214 0 -326 -447q-11 -40 -16 -61q-14 -57 -39 -162q-82 -347 -160 -458q-76 -110 -190.5 -168t-253.5 -58q-172 0 -289 116.5t-117 283.5q0 40 2 72l1 3l225 736q11 38 15.5 58t4.5 32
q0 45 -148 53q-69 3 -111 6zM1198 1728l-272 -223h-55l262 301q30 34 46 44.5t32 10.5q20 0 34.5 -15.5t14.5 -37.5q0 -28 -53 -73q-5 -4 -9 -7z" />
    <glyph glyph-name="Ucircumflex" unicode="&#xdb;" horiz-adv-x="1479" 
d="M179 1327v33q114 -3 229 -4.5t231 -1.5q22 0 100.5 1.5t212.5 4.5v-29q-136 -10 -176 -17t-53 -18q-12 -10 -26.5 -49.5t-45.5 -146.5l-190 -651q-20 -71 -31.5 -134.5t-11.5 -101.5q0 -99 60 -152t171 -53q183 0 305.5 127.5t184.5 382.5l94 391q21 90 32 156t11 106
q0 78 -51 116t-166 44v27q75 -3 146 -4.5t138 -1.5q58 0 145 3.5t111 4.5v-39h-18q-214 0 -326 -447q-11 -40 -16 -61q-14 -57 -39 -162q-82 -347 -160 -458q-76 -110 -190.5 -168t-253.5 -58q-172 0 -289 116.5t-117 283.5q0 40 2 72l1 3l225 736q11 38 15.5 58t4.5 32
q0 45 -148 53q-69 3 -111 6zM1004 1853h106l154 -348h-43l-174 244l-271 -244h-53z" />
    <glyph glyph-name="Udieresis" unicode="&#xdc;" horiz-adv-x="1479" 
d="M179 1327v33q114 -3 229 -4.5t231 -1.5q22 0 100.5 1.5t212.5 4.5v-29q-136 -10 -176 -17t-53 -18q-12 -10 -26.5 -49.5t-45.5 -146.5l-190 -651q-20 -71 -31.5 -134.5t-11.5 -101.5q0 -99 60 -152t171 -53q183 0 305.5 127.5t184.5 382.5l94 391q21 90 32 156t11 106
q0 78 -51 116t-166 44v27q75 -3 146 -4.5t138 -1.5q58 0 145 3.5t111 4.5v-39h-18q-214 0 -326 -447q-11 -40 -16 -61q-14 -57 -39 -162q-82 -347 -160 -458q-76 -110 -190.5 -168t-253.5 -58q-172 0 -289 116.5t-117 283.5q0 40 2 72l1 3l225 736q11 38 15.5 58t4.5 32
q0 45 -148 53q-69 3 -111 6zM1194 1742q35 0 61.5 -25.5t26.5 -60.5q0 -37 -25 -62.5t-63 -25.5q-35 0 -60.5 25.5t-25.5 60.5t26 61.5t60 26.5zM852 1742q35 0 61.5 -25.5t26.5 -60.5q0 -38 -24.5 -63t-63.5 -25q-35 0 -60.5 26t-25.5 62q0 33 27 59.5t59 26.5z" />
    <glyph glyph-name="Yacute" unicode="&#xdd;" horiz-adv-x="1526" 
d="M160 0v33q36 1 98 3q193 5 211 21q25 22 126 425q21 81 32 124l-183 649q-18 65 -159 70q-66 2 -108 4l-1 29q15 0 44 -1q227 -3 325 -3q55 0 155 1.5t246 4.5v-28q-53 -4 -130 -5q-122 -2 -122 -35q0 -3 2 -15.5t4 -24.5l150 -611q270 309 353 421t83 155q0 51 -54 82.5
t-145 31.5h-8v29q53 -2 110.5 -3t160.5 -1q86 0 143 1t113 3v-29q-92 -6 -147 -31.5t-103 -82.5q-6 -7 -38 -49q-207 -271 -448 -550l-133 -505q-2 -10 -3 -19.5t-1 -17.5q1 -32 167 -37q91 -3 150 -6l1 -33q-134 4 -249 6t-200 2q-90 0 -338 -6q-68 -1 -104 -2zM1171 1728
l-272 -223h-55l262 301q30 34 46 44.5t32 10.5q20 0 34.5 -15.5t14.5 -37.5q0 -28 -53 -73q-5 -4 -9 -7z" />
    <glyph glyph-name="Thorn" unicode="&#xde;" horiz-adv-x="1356" 
d="M631 954l-156 -579q87 -11 130.5 -15t72.5 -4q170 0 275.5 134t105.5 339q0 111 -57 161t-183 50q-166 0 -186 -78q-2 -6 -2 -8zM-151 4v29q42 3 101 9t187 19q164 581 247 888t83 333q0 37 -169 38q-70 0 -114 1v33q24 -1 66 -1q193 -3 268 -3q110 0 390 9l81 3v-35
q-40 -1 -104 -2q-153 -2 -174 -80l-49 -178q46 1 110.5 3.5t81.5 2.5q190 0 308 -100t118 -256q0 -172 -161 -283.5t-408 -111.5q-41 0 -94 3.5t-152 14.5l-62 -238q-1 -6 -1.5 -11t-0.5 -15q0 -32 139 -36q94 -3 158 -7v-33q-185 6 -286.5 8t-167.5 2q-61 0 -160.5 -1.5
t-234.5 -4.5z" />
    <glyph glyph-name="germandbls" unicode="&#xdf;" horiz-adv-x="1018" 
d="M500 799q174 2 257 93t83 279q0 90 -35.5 136.5t-104.5 46.5q-95 0 -159.5 -80t-100.5 -242l-100 -461q-99 -445 -259 -705.5t-331 -260.5q-70 0 -111.5 36.5t-41.5 98.5q0 53 32 89t80 36q37 0 61.5 -24t24.5 -60q0 -74 -90 -105q-24 -8 -24 -14q0 -10 19.5 -19.5
t45.5 -9.5q80 0 139 57t99 173q33 98 70.5 302t54.5 277q100 459 261 703t363 244q124 0 199.5 -79t75.5 -208q0 -151 -113 -233.5t-330 -90.5q151 -43 227 -133.5t76 -226.5q0 -174 -136.5 -310.5t-295.5 -136.5q-71 0 -116.5 38.5t-45.5 96.5t32.5 95t82.5 37
q35 0 57.5 -24t22.5 -60q0 -37 -24.5 -65t-55.5 -28q-17 0 -31.5 5t-29.5 16q0 -36 24 -58t64 -22q112 0 188 144t76 364q0 128 -41 182.5t-145 71.5z" />
    <glyph glyph-name="agrave" unicode="&#xe0;" horiz-adv-x="1055" 
d="M197 2q77 0 143 71.5t135 233.5q73 168 110.5 280.5t37.5 162.5q0 60 -25.5 94.5t-69.5 34.5q-63 0 -117.5 -56t-115.5 -184q-79 -166 -129.5 -336.5t-50.5 -230.5q0 -36 19.5 -53t62.5 -17zM971 311q-62 -186 -131 -265t-168 -79q-83 0 -124.5 43.5t-41.5 130.5
q0 39 11.5 105.5t33.5 154.5h-6q-102 -252 -182 -340t-193 -88q-98 0 -157.5 71t-59.5 189q0 100 42.5 207.5t121.5 206.5q98 126 198 189t201 63q62 0 97.5 -36t35.5 -97q0 -25 -0.5 -37t-1.5 -22h4l70 180q14 -28 26.5 -35.5t34.5 -7.5q29 0 49 8t35 24l13 -2
q-102 -303 -163 -526.5t-61 -286.5q0 -32 13 -45.5t43 -13.5q63 0 121 78t114 239zM583 1299l199 -281h-55l-224 221l-15 15q-46 45 -46 71q0 22 14.5 35.5t38.5 13.5q34 0 80 -64q5 -7 8 -11z" />
    <glyph glyph-name="aacute" unicode="&#xe1;" horiz-adv-x="1055" 
d="M197 2q77 0 143 71.5t135 233.5q73 168 110.5 280.5t37.5 162.5q0 60 -25.5 94.5t-69.5 34.5q-63 0 -117.5 -56t-115.5 -184q-79 -166 -129.5 -336.5t-50.5 -230.5q0 -36 19.5 -53t62.5 -17zM971 311q-62 -186 -131 -265t-168 -79q-83 0 -124.5 43.5t-41.5 130.5
q0 39 11.5 105.5t33.5 154.5h-6q-102 -252 -182 -340t-193 -88q-98 0 -157.5 71t-59.5 189q0 100 42.5 207.5t121.5 206.5q98 126 198 189t201 63q62 0 97.5 -36t35.5 -97q0 -25 -0.5 -37t-1.5 -22h4l70 180q14 -28 26.5 -35.5t34.5 -7.5q29 0 49 8t35 24l13 -2
q-102 -303 -163 -526.5t-61 -286.5q0 -32 13 -45.5t43 -13.5q63 0 121 78t114 239zM839 1241l-272 -223h-55l262 301q30 34 46 44.5t32 10.5q20 0 34.5 -15.5t14.5 -37.5q0 -28 -53 -73q-5 -4 -9 -7z" />
    <glyph glyph-name="acircumflex" unicode="&#xe2;" horiz-adv-x="1055" 
d="M197 2q77 0 143 71.5t135 233.5q73 168 110.5 280.5t37.5 162.5q0 60 -25.5 94.5t-69.5 34.5q-63 0 -117.5 -56t-115.5 -184q-79 -166 -129.5 -336.5t-50.5 -230.5q0 -36 19.5 -53t62.5 -17zM971 311q-62 -186 -131 -265t-168 -79q-83 0 -124.5 43.5t-41.5 130.5
q0 39 11.5 105.5t33.5 154.5h-6q-102 -252 -182 -340t-193 -88q-98 0 -157.5 71t-59.5 189q0 100 42.5 207.5t121.5 206.5q98 126 198 189t201 63q62 0 97.5 -36t35.5 -97q0 -25 -0.5 -37t-1.5 -22h4l70 180q14 -28 26.5 -35.5t34.5 -7.5q29 0 49 8t35 24l13 -2
q-102 -303 -163 -526.5t-61 -286.5q0 -32 13 -45.5t43 -13.5q63 0 121 78t114 239zM645 1366h106l154 -348h-43l-174 244l-271 -244h-53z" />
    <glyph glyph-name="atilde" unicode="&#xe3;" horiz-adv-x="1055" 
d="M197 2q77 0 143 71.5t135 233.5q73 168 110.5 280.5t37.5 162.5q0 60 -25.5 94.5t-69.5 34.5q-63 0 -117.5 -56t-115.5 -184q-79 -166 -129.5 -336.5t-50.5 -230.5q0 -36 19.5 -53t62.5 -17zM971 311q-62 -186 -131 -265t-168 -79q-83 0 -124.5 43.5t-41.5 130.5
q0 39 11.5 105.5t33.5 154.5h-6q-102 -252 -182 -340t-193 -88q-98 0 -157.5 71t-59.5 189q0 100 42.5 207.5t121.5 206.5q98 126 198 189t201 63q62 0 97.5 -36t35.5 -97q0 -25 -0.5 -37t-1.5 -22h4l70 180q14 -28 26.5 -35.5t34.5 -7.5q29 0 49 8t35 24l13 -2
q-102 -303 -163 -526.5t-61 -286.5q0 -32 13 -45.5t43 -13.5q63 0 121 78t114 239zM915 1286h41q-24 -93 -65 -137.5t-103 -44.5q-16 0 -31 2t-30 6l-133 35q-25 6 -42.5 9t-31.5 3q-39 0 -63.5 -20t-34.5 -60h-39q18 90 58 132t105 42q14 0 34 -3t44 -9l138 -35
q16 -3 28.5 -4.5t22.5 -1.5q39 0 64.5 21.5t37.5 64.5z" />
    <glyph glyph-name="adieresis" unicode="&#xe4;" horiz-adv-x="1055" 
d="M197 2q77 0 143 71.5t135 233.5q73 168 110.5 280.5t37.5 162.5q0 60 -25.5 94.5t-69.5 34.5q-63 0 -117.5 -56t-115.5 -184q-79 -166 -129.5 -336.5t-50.5 -230.5q0 -36 19.5 -53t62.5 -17zM971 311q-62 -186 -131 -265t-168 -79q-83 0 -124.5 43.5t-41.5 130.5
q0 39 11.5 105.5t33.5 154.5h-6q-102 -252 -182 -340t-193 -88q-98 0 -157.5 71t-59.5 189q0 100 42.5 207.5t121.5 206.5q98 126 198 189t201 63q62 0 97.5 -36t35.5 -97q0 -25 -0.5 -37t-1.5 -22h4l70 180q14 -28 26.5 -35.5t34.5 -7.5q29 0 49 8t35 24l13 -2
q-102 -303 -163 -526.5t-61 -286.5q0 -32 13 -45.5t43 -13.5q63 0 121 78t114 239zM835 1255q35 0 61.5 -25.5t26.5 -60.5q0 -37 -25 -62.5t-63 -25.5q-35 0 -60.5 25.5t-25.5 60.5t26 61.5t60 26.5zM493 1255q35 0 61.5 -25.5t26.5 -60.5q0 -38 -24.5 -63t-63.5 -25
q-35 0 -60.5 26t-25.5 62q0 33 27 59.5t59 26.5z" />
    <glyph glyph-name="aring" unicode="&#xe5;" horiz-adv-x="1055" 
d="M696 1391q-65 0 -111 -47t-46 -113t45 -111t112 -45t112.5 45t45.5 111t-46 113t-112 47zM698 1466q97 0 165.5 -68t68.5 -165t-68.5 -166.5t-165.5 -69.5q-98 0 -166.5 69t-68.5 167t68.5 165.5t166.5 67.5zM197 2q77 0 143 71.5t135 233.5q73 168 110.5 280.5
t37.5 162.5q0 60 -25.5 94.5t-69.5 34.5q-63 0 -117.5 -56t-115.5 -184q-79 -166 -129.5 -336.5t-50.5 -230.5q0 -36 19.5 -53t62.5 -17zM971 311q-62 -186 -131 -265t-168 -79q-83 0 -124.5 43.5t-41.5 130.5q0 39 11.5 105.5t33.5 154.5h-6q-102 -252 -182 -340t-193 -88
q-98 0 -157.5 71t-59.5 189q0 100 42.5 207.5t121.5 206.5q98 126 198 189t201 63q62 0 97.5 -36t35.5 -97q0 -25 -0.5 -37t-1.5 -22h4l70 180q14 -28 26.5 -35.5t34.5 -7.5q29 0 49 8t35 24l13 -2q-102 -303 -163 -526.5t-61 -286.5q0 -32 13 -45.5t43 -13.5q63 0 121 78
t114 239z" />
    <glyph glyph-name="ae" unicode="&#xe6;" horiz-adv-x="1358" 
d="M729 420q7 0 21.5 -1t21.5 -1q71 0 118 15t79 48q57 59 100 154.5t43 150.5q0 38 -17.5 55t-56.5 17q-86 0 -157 -100t-152 -338zM498 102q-10 33 -15.5 63.5t-5.5 55.5q0 183 128 361t343 290q-25 3 -43.5 4t-36.5 1q-125 0 -233 -41t-201 -123q-121 -108 -198.5 -261
t-77.5 -278q0 -83 39 -127.5t112 -44.5q54 0 99 24t90 76zM518 76q-54 -61 -116.5 -89t-147.5 -28q-132 0 -214.5 77.5t-82.5 203.5q0 121 80.5 244.5t228.5 228.5q138 96 292.5 144t324.5 48q184 0 267 -45.5t83 -146.5q0 -141 -136 -234.5t-352 -93.5h-24
q-25 -79 -38 -148t-13 -120q0 -59 30 -87t95 -28q122 0 215.5 84t160.5 254l25 -8q-74 -194 -179.5 -283.5t-260.5 -89.5q-80 0 -138.5 28.5t-99.5 88.5z" />
    <glyph glyph-name="ccedilla" unicode="&#xe7;" horiz-adv-x="827" 
d="M657 301q-71 -174 -169 -258t-230 -84q-130 0 -208.5 87t-78.5 233q0 128 64 257t178 230q82 73 158.5 108t152.5 35q86 0 136.5 -50t50.5 -136q0 -75 -38.5 -122.5t-97.5 -47.5q-39 0 -62.5 23.5t-23.5 62.5q0 47 35.5 83t83.5 36q7 0 18 -1.5t25 -4.5q1 6 1.5 13
t0.5 19q0 43 -35 70t-92 27q-67 0 -118.5 -44.5t-100.5 -144.5q-68 -142 -111.5 -309t-43.5 -268q0 -67 29.5 -96t97.5 -29q110 0 195.5 78.5t154.5 242.5zM223 -12h53l-33 -109q8 1 21 2q34 2 45 2q76 0 122 -43.5t46 -115.5q0 -73 -58.5 -118.5t-152.5 -45.5
q-52 0 -116 16t-159 53l27 64q63 -32 122 -50t99 -18q64 0 95.5 25t31.5 76q0 43 -31 67.5t-85 24.5q-20 0 -41.5 -2t-45.5 -6z" />
    <glyph glyph-name="egrave" unicode="&#xe8;" horiz-adv-x="817" 
d="M213 422q7 1 17 2q152 19 196 55q55 45 103.5 153t48.5 183q0 28 -21 42.5t-59 14.5q-137 0 -275 -420zM639 289q-77 -171 -175 -249.5t-235 -78.5q-123 0 -192.5 73.5t-69.5 205.5q0 107 54 232t149 233q90 102 171.5 149t168.5 47q85 0 133.5 -44t48.5 -122
q0 -139 -129 -230.5t-360 -115.5q-32 -107 -49 -184.5t-17 -112.5q0 -51 29 -75.5t90 -24.5q114 0 201 75t157 234zM471 1299l199 -281h-55l-224 221l-15 15q-46 45 -46 71q0 22 14.5 35.5t38.5 13.5q34 0 80 -64q5 -7 8 -11z" />
    <glyph glyph-name="eacute" unicode="&#xe9;" horiz-adv-x="817" 
d="M213 422q7 1 17 2q152 19 196 55q55 45 103.5 153t48.5 183q0 28 -21 42.5t-59 14.5q-137 0 -275 -420zM639 289q-77 -171 -175 -249.5t-235 -78.5q-123 0 -192.5 73.5t-69.5 205.5q0 107 54 232t149 233q90 102 171.5 149t168.5 47q85 0 133.5 -44t48.5 -122
q0 -139 -129 -230.5t-360 -115.5q-32 -107 -49 -184.5t-17 -112.5q0 -51 29 -75.5t90 -24.5q114 0 201 75t157 234zM727 1241l-272 -223h-55l262 301q30 34 46 44.5t32 10.5q20 0 34.5 -15.5t14.5 -37.5q0 -28 -53 -73q-5 -4 -9 -7z" />
    <glyph glyph-name="ecircumflex" unicode="&#xea;" horiz-adv-x="817" 
d="M213 422q7 1 17 2q152 19 196 55q55 45 103.5 153t48.5 183q0 28 -21 42.5t-59 14.5q-137 0 -275 -420zM639 289q-77 -171 -175 -249.5t-235 -78.5q-123 0 -192.5 73.5t-69.5 205.5q0 107 54 232t149 233q90 102 171.5 149t168.5 47q85 0 133.5 -44t48.5 -122
q0 -139 -129 -230.5t-360 -115.5q-32 -107 -49 -184.5t-17 -112.5q0 -51 29 -75.5t90 -24.5q114 0 201 75t157 234zM533 1366h106l154 -348h-43l-174 244l-271 -244h-53z" />
    <glyph glyph-name="edieresis" unicode="&#xeb;" horiz-adv-x="817" 
d="M213 422q7 1 17 2q152 19 196 55q55 45 103.5 153t48.5 183q0 28 -21 42.5t-59 14.5q-137 0 -275 -420zM639 289q-77 -171 -175 -249.5t-235 -78.5q-123 0 -192.5 73.5t-69.5 205.5q0 107 54 232t149 233q90 102 171.5 149t168.5 47q85 0 133.5 -44t48.5 -122
q0 -139 -129 -230.5t-360 -115.5q-32 -107 -49 -184.5t-17 -112.5q0 -51 29 -75.5t90 -24.5q114 0 201 75t157 234zM723 1255q35 0 61.5 -25.5t26.5 -60.5q0 -37 -25 -62.5t-63 -25.5q-35 0 -60.5 25.5t-25.5 60.5t26 61.5t60 26.5zM381 1255q35 0 61.5 -25.5t26.5 -60.5
q0 -38 -24.5 -63t-63.5 -25q-35 0 -60.5 26t-25.5 62q0 33 27 59.5t59 26.5z" />
    <glyph glyph-name="igrave" unicode="&#xec;" horiz-adv-x="647" 
d="M557 346q-45 -188 -116 -279.5t-173 -91.5q-87 0 -138.5 57.5t-51.5 155.5q0 53 32 134q3 8 5 12q28 72 81 194q97 222 97 287q0 21 -16.5 35t-40.5 14q-68 0 -121 -61.5t-119 -222.5l-29 8q76 177 137 241t146 64q79 0 132.5 -66t53.5 -161q0 -29 -29 -103
q-5 -13 -8 -21q-15 -39 -45 -111q-114 -285 -114 -359q0 -31 15 -46.5t44 -15.5q71 0 131.5 89.5t99.5 252.5zM334 1299l199 -281h-55l-224 221l-15 15q-46 45 -46 71q0 22 14.5 35.5t38.5 13.5q34 0 80 -64q5 -7 8 -11z" />
    <glyph glyph-name="iacute" unicode="&#xed;" horiz-adv-x="647" 
d="M557 346q-45 -188 -116 -279.5t-173 -91.5q-87 0 -138.5 57.5t-51.5 155.5q0 53 32 134q3 8 5 12q28 72 81 194q97 222 97 287q0 21 -16.5 35t-40.5 14q-68 0 -121 -61.5t-119 -222.5l-29 8q76 177 137 241t146 64q79 0 132.5 -66t53.5 -161q0 -29 -29 -103
q-5 -13 -8 -21q-15 -39 -45 -111q-114 -285 -114 -359q0 -31 15 -46.5t44 -15.5q71 0 131.5 89.5t99.5 252.5zM590 1241l-272 -223h-55l262 301q30 34 46 44.5t32 10.5q20 0 34.5 -15.5t14.5 -37.5q0 -28 -53 -73q-5 -4 -9 -7z" />
    <glyph glyph-name="icircumflex" unicode="&#xee;" horiz-adv-x="647" 
d="M557 346q-45 -188 -116 -279.5t-173 -91.5q-87 0 -138.5 57.5t-51.5 155.5q0 53 32 134q3 8 5 12q28 72 81 194q97 222 97 287q0 21 -16.5 35t-40.5 14q-68 0 -121 -61.5t-119 -222.5l-29 8q76 177 137 241t146 64q79 0 132.5 -66t53.5 -161q0 -29 -29 -103
q-5 -13 -8 -21q-15 -39 -45 -111q-114 -285 -114 -359q0 -31 15 -46.5t44 -15.5q71 0 131.5 89.5t99.5 252.5zM396 1366h106l154 -348h-43l-174 244l-271 -244h-53z" />
    <glyph glyph-name="idieresis" unicode="&#xef;" horiz-adv-x="647" 
d="M557 346q-45 -188 -116 -279.5t-173 -91.5q-87 0 -138.5 57.5t-51.5 155.5q0 53 32 134q3 8 5 12q28 72 81 194q97 222 97 287q0 21 -16.5 35t-40.5 14q-68 0 -121 -61.5t-119 -222.5l-29 8q76 177 137 241t146 64q79 0 132.5 -66t53.5 -161q0 -29 -29 -103
q-5 -13 -8 -21q-15 -39 -45 -111q-114 -285 -114 -359q0 -31 15 -46.5t44 -15.5q71 0 131.5 89.5t99.5 252.5zM586 1255q35 0 61.5 -25.5t26.5 -60.5q0 -37 -25 -62.5t-63 -25.5q-35 0 -60.5 25.5t-25.5 60.5t26 61.5t60 26.5zM244 1255q35 0 61.5 -25.5t26.5 -60.5
q0 -38 -24.5 -63t-63.5 -25q-35 0 -60.5 26t-25.5 62q0 33 27 59.5t59 26.5z" />
    <glyph glyph-name="eth" unicode="&#xf0;" horiz-adv-x="901" 
d="M150 131q0 -74 29 -109.5t89 -35.5q64 0 107 37t88 135q61 136 100 294.5t39 258.5q0 71 -25.5 104t-80.5 33q-69 0 -117 -46t-96 -161q-62 -150 -97.5 -289.5t-35.5 -220.5zM487 1108l-278 -86l-16 41l276 84q-25 53 -55.5 108.5t-67.5 114.5l37 25q31 -39 68 -90.5
t94 -137.5l260 82l20 -41l-252 -75q113 -184 161 -318t48 -258q0 -244 -155.5 -422t-356.5 -178q-138 0 -219.5 85t-81.5 230q0 129 54.5 247.5t154.5 209.5q76 69 156 107t145 38q38 0 62.5 -7t48.5 -23q-25 74 -50 139t-53 125z" />
    <glyph glyph-name="ntilde" unicode="&#xf1;" horiz-adv-x="1141" 
d="M219 -18q-21 22 -44.5 32.5t-53.5 10.5q-21 0 -36.5 -8t-29.5 -27h-24q112 309 183 544t71 289q0 25 -14.5 38t-41.5 13q-77 0 -145.5 -93.5t-112.5 -262.5l-28 10q58 203 136 290t200 87q74 0 114.5 -43t40.5 -121q0 -72 -62 -278l-12 -39l11 -2q127 325 196 404t170 79
q83 0 136 -53.5t53 -136.5q0 -59 -57 -199q-31 -76 -46 -119q-55 -156 -71.5 -218t-16.5 -97t16 -53.5t46 -18.5q58 0 120 85t111 237l27 -10q-66 -190 -135 -269.5t-166 -79.5q-86 0 -134.5 50t-48.5 139q0 76 65 243q14 36 21 55l17 43q96 247 96 300q0 31 -19 48t-53 17
q-73 0 -146.5 -113t-195.5 -425zM924 1286h41q-24 -93 -65 -137.5t-103 -44.5q-16 0 -31 2t-30 6l-133 35q-25 6 -42.5 9t-31.5 3q-39 0 -63.5 -20t-34.5 -60h-39q18 90 58 132t105 42q14 0 34 -3t44 -9l138 -35q16 -3 28.5 -4.5t22.5 -1.5q39 0 64.5 21.5t37.5 64.5z" />
    <glyph glyph-name="ograve" unicode="&#xf2;" horiz-adv-x="901" 
d="M506 879q-76 0 -128.5 -57t-111.5 -212q-54 -143 -84 -272t-30 -213q0 -71 28.5 -105t87.5 -34q71 0 120 48.5t97 172.5q60 152 93.5 298.5t33.5 246.5q0 63 -26.5 95t-79.5 32zM510 907q123 0 199.5 -99t76.5 -257q0 -227 -160.5 -410.5t-355.5 -183.5
q-138 0 -218.5 86.5t-80.5 235.5q0 134 55 256.5t158 218.5q81 76 163 114.5t163 38.5zM506 1299l199 -281h-55l-224 221l-15 15q-46 45 -46 71q0 22 14.5 35.5t38.5 13.5q34 0 80 -64q5 -7 8 -11z" />
    <glyph glyph-name="oacute" unicode="&#xf3;" horiz-adv-x="901" 
d="M506 879q-76 0 -128.5 -57t-111.5 -212q-54 -143 -84 -272t-30 -213q0 -71 28.5 -105t87.5 -34q71 0 120 48.5t97 172.5q60 152 93.5 298.5t33.5 246.5q0 63 -26.5 95t-79.5 32zM510 907q123 0 199.5 -99t76.5 -257q0 -227 -160.5 -410.5t-355.5 -183.5
q-138 0 -218.5 86.5t-80.5 235.5q0 134 55 256.5t158 218.5q81 76 163 114.5t163 38.5zM762 1241l-272 -223h-55l262 301q30 34 46 44.5t32 10.5q20 0 34.5 -15.5t14.5 -37.5q0 -28 -53 -73q-5 -4 -9 -7z" />
    <glyph glyph-name="ocircumflex" unicode="&#xf4;" horiz-adv-x="901" 
d="M506 879q-76 0 -128.5 -57t-111.5 -212q-54 -143 -84 -272t-30 -213q0 -71 28.5 -105t87.5 -34q71 0 120 48.5t97 172.5q60 152 93.5 298.5t33.5 246.5q0 63 -26.5 95t-79.5 32zM510 907q123 0 199.5 -99t76.5 -257q0 -227 -160.5 -410.5t-355.5 -183.5
q-138 0 -218.5 86.5t-80.5 235.5q0 134 55 256.5t158 218.5q81 76 163 114.5t163 38.5zM568 1366h106l154 -348h-43l-174 244l-271 -244h-53z" />
    <glyph glyph-name="otilde" unicode="&#xf5;" horiz-adv-x="901" 
d="M506 879q-76 0 -128.5 -57t-111.5 -212q-54 -143 -84 -272t-30 -213q0 -71 28.5 -105t87.5 -34q71 0 120 48.5t97 172.5q60 152 93.5 298.5t33.5 246.5q0 63 -26.5 95t-79.5 32zM510 907q123 0 199.5 -99t76.5 -257q0 -227 -160.5 -410.5t-355.5 -183.5
q-138 0 -218.5 86.5t-80.5 235.5q0 134 55 256.5t158 218.5q81 76 163 114.5t163 38.5zM838 1286h41q-24 -93 -65 -137.5t-103 -44.5q-16 0 -31 2t-30 6l-133 35q-25 6 -42.5 9t-31.5 3q-39 0 -63.5 -20t-34.5 -60h-39q18 90 58 132t105 42q14 0 34 -3t44 -9l138 -35
q16 -3 28.5 -4.5t22.5 -1.5q39 0 64.5 21.5t37.5 64.5z" />
    <glyph glyph-name="odieresis" unicode="&#xf6;" horiz-adv-x="901" 
d="M506 879q-76 0 -128.5 -57t-111.5 -212q-54 -143 -84 -272t-30 -213q0 -71 28.5 -105t87.5 -34q71 0 120 48.5t97 172.5q60 152 93.5 298.5t33.5 246.5q0 63 -26.5 95t-79.5 32zM510 907q123 0 199.5 -99t76.5 -257q0 -227 -160.5 -410.5t-355.5 -183.5
q-138 0 -218.5 86.5t-80.5 235.5q0 134 55 256.5t158 218.5q81 76 163 114.5t163 38.5zM758 1255q35 0 61.5 -25.5t26.5 -60.5q0 -37 -25 -62.5t-63 -25.5q-35 0 -60.5 25.5t-25.5 60.5t26 61.5t60 26.5zM416 1255q35 0 61.5 -25.5t26.5 -60.5q0 -38 -24.5 -63t-63.5 -25
q-35 0 -60.5 26t-25.5 62q0 33 27 59.5t59 26.5z" />
    <glyph glyph-name="divide" unicode="&#xf7;" horiz-adv-x="1706" 
d="M854 367q51 0 88 -37t37 -88q0 -52 -36.5 -88.5t-88.5 -36.5q-53 0 -89 36t-36 89q0 51 37 88t88 37zM254 680h1198v-139h-1198v139zM854 1106q51 0 88 -37.5t37 -89.5q0 -51 -36.5 -88t-88.5 -37t-88.5 36.5t-36.5 88.5t37 89.5t88 37.5z" />
    <glyph glyph-name="oslash" unicode="&#xf8;" horiz-adv-x="901" 
d="M152 144l454 659q-4 37 -30.5 58.5t-69.5 21.5q-82 0 -138.5 -68t-125.5 -258q-43 -116 -65 -218.5t-25 -194.5zM154 88q6 -52 33.5 -77t78.5 -25q81 0 133.5 59t112.5 227q49 137 74.5 255.5t25.5 203.5v19zM-25 -160l-32 19l120 174q-46 43 -69 104t-23 142
q0 134 55 256.5t158 218.5q81 76 163 114.5t163 38.5q38 0 73 -11.5t70 -35.5l109 158l31 -23l-111 -157q53 -56 78.5 -127.5t25.5 -159.5q0 -227 -160.5 -410.5t-355.5 -183.5q-57 0 -98 11.5t-78 37.5z" />
    <glyph glyph-name="ugrave" unicode="&#xf9;" horiz-adv-x="1141" 
d="M1065 401q-55 -217 -132.5 -318t-189.5 -101q-74 0 -117.5 42t-43.5 115q0 54 62 282l3 13l-10 2q-110 -288 -178 -371t-162 -83q-89 0 -145 55.5t-56 144.5q0 76 72 277q8 23 12 35q49 136 70.5 213t21.5 114q0 27 -11 39t-36 12q-74 0 -137.5 -95.5t-114.5 -282.5
l-26 6q52 202 126.5 302.5t172.5 100.5q81 0 128.5 -51t47.5 -137q0 -70 -62 -251l-6 -18l-21 -63q-85 -251 -85 -305q0 -32 17.5 -49t49.5 -17q152 0 444 819l25 72q18 -14 37.5 -20t48.5 -6q24 0 42 6t38 20h19q-103 -322 -167.5 -556.5t-64.5 -278.5q0 -26 11 -37t36 -11
q75 0 138.5 97.5t115.5 290.5zM592 1299l199 -281h-55l-224 221l-15 15q-46 45 -46 71q0 22 14.5 35.5t38.5 13.5q34 0 80 -64q5 -7 8 -11z" />
    <glyph glyph-name="uacute" unicode="&#xfa;" horiz-adv-x="1141" 
d="M1065 401q-55 -217 -132.5 -318t-189.5 -101q-74 0 -117.5 42t-43.5 115q0 54 62 282l3 13l-10 2q-110 -288 -178 -371t-162 -83q-89 0 -145 55.5t-56 144.5q0 76 72 277q8 23 12 35q49 136 70.5 213t21.5 114q0 27 -11 39t-36 12q-74 0 -137.5 -95.5t-114.5 -282.5
l-26 6q52 202 126.5 302.5t172.5 100.5q81 0 128.5 -51t47.5 -137q0 -70 -62 -251l-6 -18l-21 -63q-85 -251 -85 -305q0 -32 17.5 -49t49.5 -17q152 0 444 819l25 72q18 -14 37.5 -20t48.5 -6q24 0 42 6t38 20h19q-103 -322 -167.5 -556.5t-64.5 -278.5q0 -26 11 -37t36 -11
q75 0 138.5 97.5t115.5 290.5zM848 1241l-272 -223h-55l262 301q30 34 46 44.5t32 10.5q20 0 34.5 -15.5t14.5 -37.5q0 -28 -53 -73q-5 -4 -9 -7z" />
    <glyph glyph-name="ucircumflex" unicode="&#xfb;" horiz-adv-x="1141" 
d="M1065 401q-55 -217 -132.5 -318t-189.5 -101q-74 0 -117.5 42t-43.5 115q0 54 62 282l3 13l-10 2q-110 -288 -178 -371t-162 -83q-89 0 -145 55.5t-56 144.5q0 76 72 277q8 23 12 35q49 136 70.5 213t21.5 114q0 27 -11 39t-36 12q-74 0 -137.5 -95.5t-114.5 -282.5
l-26 6q52 202 126.5 302.5t172.5 100.5q81 0 128.5 -51t47.5 -137q0 -70 -62 -251l-6 -18l-21 -63q-85 -251 -85 -305q0 -32 17.5 -49t49.5 -17q152 0 444 819l25 72q18 -14 37.5 -20t48.5 -6q24 0 42 6t38 20h19q-103 -322 -167.5 -556.5t-64.5 -278.5q0 -26 11 -37t36 -11
q75 0 138.5 97.5t115.5 290.5zM654 1366h106l154 -348h-43l-174 244l-271 -244h-53z" />
    <glyph glyph-name="udieresis" unicode="&#xfc;" horiz-adv-x="1141" 
d="M1065 401q-55 -217 -132.5 -318t-189.5 -101q-74 0 -117.5 42t-43.5 115q0 54 62 282l3 13l-10 2q-110 -288 -178 -371t-162 -83q-89 0 -145 55.5t-56 144.5q0 76 72 277q8 23 12 35q49 136 70.5 213t21.5 114q0 27 -11 39t-36 12q-74 0 -137.5 -95.5t-114.5 -282.5
l-26 6q52 202 126.5 302.5t172.5 100.5q81 0 128.5 -51t47.5 -137q0 -70 -62 -251l-6 -18l-21 -63q-85 -251 -85 -305q0 -32 17.5 -49t49.5 -17q152 0 444 819l25 72q18 -14 37.5 -20t48.5 -6q24 0 42 6t38 20h19q-103 -322 -167.5 -556.5t-64.5 -278.5q0 -26 11 -37t36 -11
q75 0 138.5 97.5t115.5 290.5zM844 1255q35 0 61.5 -25.5t26.5 -60.5q0 -37 -25 -62.5t-63 -25.5q-35 0 -60.5 25.5t-25.5 60.5t26 61.5t60 26.5zM502 1255q35 0 61.5 -25.5t26.5 -60.5q0 -38 -24.5 -63t-63.5 -25q-35 0 -60.5 26t-25.5 62q0 33 27 59.5t59 26.5z" />
    <glyph glyph-name="yacute" unicode="&#xfd;" horiz-adv-x="1053" 
d="M-51 559q68 192 137.5 269t169.5 77q77 0 125.5 -47.5t48.5 -124.5q0 -60 -92 -317l-14 -41q-42 -116 -60 -186t-18 -111q0 -34 17 -51t50 -17q112 0 202.5 174.5t238.5 720.5q24 -18 48.5 -27.5t49.5 -9.5q21 0 41.5 7.5t44.5 23.5l-252 -934q-43 -160 -169 -261
t-277 -101q-91 0 -143 41t-52 112q0 59 37 99.5t92 40.5q45 0 72.5 -27t27.5 -70q0 -50 -35 -78t-100 -28h-5q-16 2 -30 2q14 -31 43.5 -46.5t73.5 -15.5q103 0 169 81.5t124 285.5l80 281h-10q-62 -165 -133 -234.5t-177 -69.5q-88 0 -139 50.5t-51 138.5q0 72 77 286l7 19
q58 163 79 237t21 109q0 23 -16.5 37t-44.5 14q-56 0 -117.5 -85t-109.5 -232zM837 1241l-272 -223h-55l262 301q30 34 46 44.5t32 10.5q20 0 34.5 -15.5t14.5 -37.5q0 -28 -53 -73q-5 -4 -9 -7z" />
    <glyph glyph-name="thorn" unicode="&#xfe;" horiz-adv-x="985" 
d="M623 872q-59 0 -108.5 -55t-111.5 -192q-55 -125 -85.5 -244.5t-30.5 -206.5q0 -75 22.5 -111t69.5 -36q48 0 92 45t86 139q71 155 113.5 305t42.5 232q0 63 -22.5 93.5t-67.5 30.5zM334 557l10 -2q78 200 143 275t154 75q103 0 168 -93.5t65 -244.5q0 -217 -148 -397
t-316 -180q-84 0 -118 41.5t-34 146.5q0 33 4 73t12 83l-8 2l-190 -586q-7 -19 -11 -37t-4 -26q0 -39 125 -41q52 -1 84 -3v-36q-94 3 -174 4.5t-147 1.5q-57 0 -135 -1.5t-174 -4.5v37q20 0 56 1q153 4 191 119q8 22 102.5 326.5t182.5 585.5l57 178q123 389 123 418
q0 30 -123 33q-64 2 -104 4v28q103 0 214 6t230 17z" />
    <glyph glyph-name="ydieresis" unicode="&#xff;" horiz-adv-x="1053" 
d="M-51 559q68 192 137.5 269t169.5 77q77 0 125.5 -47.5t48.5 -124.5q0 -60 -92 -317l-14 -41q-42 -116 -60 -186t-18 -111q0 -34 17 -51t50 -17q112 0 202.5 174.5t238.5 720.5q24 -18 48.5 -27.5t49.5 -9.5q21 0 41.5 7.5t44.5 23.5l-252 -934q-43 -160 -169 -261
t-277 -101q-91 0 -143 41t-52 112q0 59 37 99.5t92 40.5q45 0 72.5 -27t27.5 -70q0 -50 -35 -78t-100 -28h-5q-16 2 -30 2q14 -31 43.5 -46.5t73.5 -15.5q103 0 169 81.5t124 285.5l80 281h-10q-62 -165 -133 -234.5t-177 -69.5q-88 0 -139 50.5t-51 138.5q0 72 77 286l7 19
q58 163 79 237t21 109q0 23 -16.5 37t-44.5 14q-56 0 -117.5 -85t-109.5 -232zM833 1255q35 0 61.5 -25.5t26.5 -60.5q0 -37 -25 -62.5t-63 -25.5q-35 0 -60.5 25.5t-25.5 60.5t26 61.5t60 26.5zM491 1255q35 0 61.5 -25.5t26.5 -60.5q0 -38 -24.5 -63t-63.5 -25
q-35 0 -60.5 26t-25.5 62q0 33 27 59.5t59 26.5z" />
    <glyph glyph-name="Cacute" unicode="&#x106;" horiz-adv-x="1341" 
d="M1135 475q-68 -256 -202 -382t-339 -126q-219 0 -364.5 156.5t-145.5 392.5q0 165 70.5 320.5t210.5 298.5q120 123 250 191.5t241 68.5q102 0 177 -53.5t116 -155.5q52 40 93 92t73 119l31 -2l-179 -664l-20 5q3 54 4.5 93.5t1.5 63.5q0 230 -74.5 349.5t-218.5 119.5
q-102 0 -187.5 -72t-158.5 -219q-86 -173 -138 -376.5t-52 -358.5q0 -163 73.5 -248.5t214.5 -85.5q182 0 303.5 119t186.5 360zM1124 1728l-272 -223h-55l262 301q30 34 46 44.5t32 10.5q20 0 34.5 -15.5t14.5 -37.5q0 -28 -53 -73q-5 -4 -9 -7z" />
    <glyph glyph-name="cacute" unicode="&#x107;" horiz-adv-x="827" 
d="M657 301q-71 -174 -169 -258t-230 -84q-130 0 -208.5 87t-78.5 233q0 128 64 257t178 230q82 73 158.5 108t152.5 35q86 0 136.5 -50t50.5 -136q0 -75 -38.5 -122.5t-97.5 -47.5q-39 0 -62.5 23.5t-23.5 62.5q0 47 35.5 83t83.5 36q7 0 18 -1.5t25 -4.5q1 6 1.5 13
t0.5 19q0 43 -35 70t-92 27q-67 0 -118.5 -44.5t-100.5 -144.5q-68 -142 -111.5 -309t-43.5 -268q0 -67 29.5 -96t97.5 -29q110 0 195.5 78.5t154.5 242.5zM739 1241l-272 -223h-55l262 301q30 34 46 44.5t32 10.5q20 0 34.5 -15.5t14.5 -37.5q0 -28 -53 -73q-5 -4 -9 -7z
" />
    <glyph glyph-name="Ccaron" unicode="&#x10c;" horiz-adv-x="1341" 
d="M1135 475q-68 -256 -202 -382t-339 -126q-219 0 -364.5 156.5t-145.5 392.5q0 165 70.5 320.5t210.5 298.5q120 123 250 191.5t241 68.5q102 0 177 -53.5t116 -155.5q52 40 93 92t73 119l31 -2l-179 -664l-20 5q3 54 4.5 93.5t1.5 63.5q0 230 -74.5 349.5t-218.5 119.5
q-102 0 -187.5 -72t-158.5 -219q-86 -173 -138 -376.5t-52 -358.5q0 -163 73.5 -248.5t214.5 -85.5q182 0 303.5 119t186.5 360zM711 1853h45l174 -244l270 244h53l-280 -348h-107z" />
    <glyph glyph-name="ccaron" unicode="&#x10d;" horiz-adv-x="827" 
d="M657 301q-71 -174 -169 -258t-230 -84q-130 0 -208.5 87t-78.5 233q0 128 64 257t178 230q82 73 158.5 108t152.5 35q86 0 136.5 -50t50.5 -136q0 -75 -38.5 -122.5t-97.5 -47.5q-39 0 -62.5 23.5t-23.5 62.5q0 47 35.5 83t83.5 36q7 0 18 -1.5t25 -4.5q1 6 1.5 13
t0.5 19q0 43 -35 70t-92 27q-67 0 -118.5 -44.5t-100.5 -144.5q-68 -142 -111.5 -309t-43.5 -268q0 -67 29.5 -96t97.5 -29q110 0 195.5 78.5t154.5 242.5zM326 1366h45l174 -244l270 244h53l-280 -348h-107z" />
    <glyph glyph-name="dcroat" unicode="&#x111;" horiz-adv-x="1112" 
d="M131 102q0 -46 21.5 -67t68.5 -21q70 0 124.5 51t115.5 179q72 152 109.5 277t37.5 214q0 66 -24.5 100.5t-71.5 34.5q-66 0 -114.5 -53t-114.5 -207q-68 -155 -110 -303t-42 -205zM774 1049h-305l10 47h309l37 124q7 20 10 33t3 21q0 12 -11 18t-32 6q-3 0 -21 2
q-78 7 -155 9v28q111 2 221 7.5t223 15.5q-24 -75 -50.5 -164.5t-29.5 -99.5h225l-12 -47h-225q-167 -553 -219 -743t-52 -238q0 -29 15.5 -44.5t44.5 -15.5q63 0 120 76t126 258l24 -4q-73 -206 -142 -284.5t-169 -78.5q-89 0 -143 51.5t-54 137.5q0 32 6 74.5t21 111.5
l-10 2q-94 -220 -162 -292t-164 -72q-111 0 -175.5 76.5t-64.5 209.5q0 113 50.5 229t142.5 216q79 85 167 133.5t161 48.5q71 0 107 -40t36 -118q0 -30 -6 -71t-23 -121h10z" />
    <glyph glyph-name="Gbreve" unicode="&#x11e;" horiz-adv-x="1464" 
d="M1068 51q-4 74 -22.5 100.5t-66.5 26.5q-66 0 -163 -61q-11 -7 -17 -11q-91 -56 -162.5 -81t-140.5 -25q-181 0 -296.5 144t-115.5 372q0 167 71 322t210 290q127 126 263.5 189t280.5 63q110 0 170.5 -42.5t110.5 -155.5h14l178 155h17q-51 -141 -94.5 -289t-79.5 -305
h-19q1 11 1 28q3 71 3 99q0 236 -75 358t-222 122t-252 -94t-202 -316q-84 -191 -128 -367.5t-44 -320.5q0 -103 55.5 -161t155.5 -58q101 0 207.5 57t162.5 141q40 60 72.5 167t32.5 155q0 39 -181 43q-64 1 -102 3v31q34 0 75.5 -0.5t123.5 -0.5q118 0 252 3.5t309 10.5
v-32q-36 -3 -92 -6q-136 -8 -150 -60l-121 -494h-19zM717 1812h44q11 -84 52.5 -122t121.5 -38q87 0 160.5 39.5t136.5 120.5h52q-79 -138 -166.5 -203t-192.5 -65q-104 0 -154.5 64.5t-53.5 203.5z" />
    <glyph glyph-name="gbreve" unicode="&#x11f;" horiz-adv-x="981" 
d="M586 666q0 114 -27.5 157t-95.5 43q-54 0 -93.5 -45t-93.5 -178q-60 -152 -96.5 -305.5t-36.5 -228.5q0 -49 20.5 -72t63.5 -23q53 0 105 38t98 110q25 38 47 87.5t41 110.5q31 105 49.5 190t18.5 116zM479 193q-57 -105 -122.5 -156t-141.5 -51q-110 0 -177 77.5
t-67 206.5q0 107 42 215t122 207q77 97 163.5 150t164.5 53q80 0 115 -47.5t37 -159.5l6 -2l57 207q20 -19 47 -28t63 -9q23 0 36 4.5t25 15.5l17 -4l-200 -745l-6 -23q-81 -300 -148 -374q-52 -59 -137 -91t-187 -32q-109 0 -166 38t-57 111q0 50 29.5 80.5t77.5 30.5
q39 0 63.5 -26.5t24.5 -69.5q0 -56 -50.5 -77t-50.5 -24q0 -14 34.5 -25.5t80.5 -11.5q99 0 154.5 61.5t97.5 233.5l63 260zM380 1325h44q11 -84 52.5 -122t121.5 -38q87 0 160.5 39.5t136.5 120.5h52q-79 -138 -166.5 -203t-192.5 -65q-104 0 -154.5 64.5t-53.5 203.5z" />
    <glyph glyph-name="Idotaccent" unicode="&#x130;" horiz-adv-x="887" 
d="M203 1362q50 -1 142 -4q182 -4 239 -4q106 0 367 7q33 0 50 1v-35q-34 -1 -89 -1q-169 -3 -197 -101q-122 -427 -208.5 -771t-86.5 -376q0 -36 178 -42q53 -2 84 -4v-31q-139 2 -246.5 3.5t-181.5 1.5q-48 0 -137 -1.5t-221 -4.5v33h8q189 6 217 24q19 12 45 104
q7 22 10 33q116 400 198.5 725.5t82.5 356.5q0 41 -135 46q-71 2 -119 5v35zM678 1749q37 0 64.5 -28.5t27.5 -64.5q0 -40 -26 -67t-66 -27q-37 0 -64.5 28t-27.5 66q0 35 29 64t63 29z" />
    <glyph glyph-name="dotlessi" unicode="&#x131;" horiz-adv-x="647" 
d="M557 346q-45 -188 -116 -279.5t-173 -91.5q-87 0 -138.5 57.5t-51.5 155.5q0 53 32 134q3 8 5 12q28 72 81 194q97 222 97 287q0 21 -16.5 35t-40.5 14q-68 0 -121 -61.5t-119 -222.5l-29 8q76 177 137 241t146 64q79 0 132.5 -66t53.5 -161q0 -29 -29 -103
q-5 -13 -8 -21q-15 -39 -45 -111q-114 -285 -114 -359q0 -31 15 -46.5t44 -15.5q71 0 131.5 89.5t99.5 252.5z" />
    <glyph glyph-name="Lslash" unicode="&#x141;" horiz-adv-x="1417" 
d="M-131 0l4 33q155 8 207.5 14.5t67.5 18.5q23 19 87 269q41 160 68 261l-358 -178l16 65l358 179q69 240 111.5 412.5t42.5 203.5q0 33 -125 39q-87 5 -145 10v35q25 -1 73 -3q235 -9 328 -9q90 0 196.5 2.5t223.5 6.5v-31q-41 -4 -110 -9q-160 -12 -177 -29
q-17 -19 -95 -319q-34 -128 -54 -205l409 205l-18 -68l-406 -203q-71 -274 -110 -439t-39 -189q0 -22 39.5 -29.5t226.5 -7.5q131 0 206 21t132 71q72 62 147 165t144 234h18q-60 -209 -89 -318.5t-48 -199.5q-35 0 -83 1t-62 1q-47 0 -157 -4t-173 -4q-81 0 -225.5 4
t-206.5 4q-71 0 -169 -2t-255 -8z" />
    <glyph glyph-name="lslash" unicode="&#x142;" horiz-adv-x="668" 
d="M567 352q-74 -215 -144 -297t-173 -82q-92 0 -144.5 63.5t-52.5 174.5q0 27 3.5 50.5t11.5 47.5l88 283l-189 -96l15 61l196 100l166 525q10 30 15.5 54t5.5 36q0 30 -122 33q-64 2 -104 4v28q104 0 214.5 6t230.5 17q-55 -172 -100.5 -325t-84.5 -296l240 125l-18 -65
l-242 -125q-14 -48 -39 -135q-117 -403 -117 -471q0 -27 17 -42.5t47 -15.5q71 0 130 80t124 268z" />
    <glyph glyph-name="OE" unicode="&#x152;" horiz-adv-x="2163" 
d="M281 246q0 -112 54 -163.5t171 -51.5q128 0 218.5 63.5t156.5 200.5q46 97 90.5 230t85.5 294q33 132 48 215.5t15 130.5q0 89 -55 126.5t-184 37.5q-133 0 -212.5 -56t-152.5 -206q-103 -210 -169 -449.5t-66 -371.5zM1870 8q-18 1 -48 2q-80 2 -108 2q-33 0 -146.5 -5
t-191.5 -5q-61 0 -214 6t-247 6q-100 0 -232.5 -8t-164.5 -8q-84 0 -143.5 17.5t-108.5 56.5q-89 70 -142.5 192.5t-53.5 257.5q0 174 96.5 349.5t269.5 314.5q111 89 219.5 131.5t225.5 42.5q8 0 146.5 -6t266.5 -6q68 0 188.5 3t174.5 3q61 0 199 -5.5t215 -5.5h65
l-141 -501h-19q1 16 2 45q2 66 2 88q0 117 -12.5 186t-40.5 103q-26 31 -92.5 44t-222.5 13q-40 0 -83.5 -2t-100.5 -6l-162 -588h86q134 0 210 69.5t132 245.5l28 -4q-64 -189 -115 -377.5t-87 -377.5h-27q12 59 18.5 107t6.5 87q0 115 -56 164t-188 49h-19l-155 -561
q-4 -14 -6 -25t-2 -20q0 -27 60.5 -37t236.5 -10q233 0 349 96t236 373h19q-38 -142 -68.5 -266.5t-54.5 -229.5z" />
    <glyph glyph-name="oe" unicode="&#x153;" horiz-adv-x="1360" 
d="M756 422q6 1 17 2q152 19 196 55q54 45 102.5 153.5t48.5 182.5q0 28 -20 42.5t-58 14.5q-86 0 -145.5 -88.5t-140.5 -361.5zM506 879q-76 0 -128.5 -57t-111.5 -212q-54 -143 -84 -272t-30 -213q0 -71 28 -104t88 -33q72 0 120.5 48.5t96.5 170.5q60 152 93.5 298.5
t33.5 246.5q0 63 -26.5 95t-79.5 32zM733 692q64 104 145 156.5t177 52.5q85 0 132.5 -44t47.5 -122q0 -139 -129 -230.5t-361 -115.5q-31 -106 -47 -181t-16 -116q0 -50 29.5 -77t85.5 -27q110 0 200.5 78.5t159.5 234.5l25 -12q-72 -163 -172 -247.5t-219 -84.5
q-91 0 -146 37.5t-86 120.5q-56 -78 -129.5 -118t-159.5 -40q-139 0 -219 86t-80 236q0 134 55 256.5t158 218.5q81 76 163 114.5t163 38.5q93 0 150.5 -55t72.5 -160z" />
    <glyph glyph-name="Scedilla" unicode="&#x15e;" horiz-adv-x="1337" 
d="M45 12l178 652l25 -5q-12 -60 -17.5 -114.5t-5.5 -106.5q0 -176 124.5 -302t299.5 -126q136 0 220.5 73.5t84.5 190.5q0 189 -330 350q-42 20 -64 31q-134 67 -195.5 148t-61.5 190q0 168 122.5 279.5t309.5 111.5q112 0 198.5 -47.5t149.5 -144.5q47 34 86 75t72 91
l21 -2l-152 -543l-23 4q7 42 10 80t3 74q0 168 -100 275.5t-252 107.5q-130 0 -204.5 -61t-74.5 -165q0 -56 26.5 -108.5t77.5 -97.5q59 -51 234 -128q90 -39 137 -63q82 -40 136.5 -131t54.5 -192q0 -178 -144 -304.5t-348 -126.5q-114 0 -217 60t-180 172
q-52 -46 -96.5 -96t-81.5 -107zM567 -12h53l-33 -109q8 1 21 2q34 2 45 2q76 0 122 -43.5t46 -115.5q0 -73 -58.5 -118.5t-152.5 -45.5q-52 0 -116 16t-159 53l27 64q63 -32 122 -50t99 -18q64 0 95.5 25t31.5 76q0 43 -31 67.5t-85 24.5q-20 0 -41.5 -2t-45.5 -6z" />
    <glyph glyph-name="scedilla" unicode="&#x15f;" horiz-adv-x="815" 
d="M29 150q6 -82 61.5 -123t159.5 -41q90 0 150.5 51.5t60.5 126.5q0 108 -188 213q-32 18 -50 29q-59 34 -88 82t-29 112q0 131 88.5 219t223.5 88q109 0 179.5 -60t70.5 -153q0 -57 -31.5 -93t-81.5 -36q-40 0 -65 23t-25 59q0 45 30 71.5t80 26.5q6 0 13 -0.5t14 -1.5
q-9 63 -61 99.5t-133 36.5t-136 -49.5t-55 -120.5q0 -52 30.5 -89t147.5 -100q112 -60 154.5 -117t42.5 -139q0 -134 -97 -220.5t-249 -86.5q-125 0 -201 61.5t-76 161.5q0 68 34 108t91 40q39 0 64.5 -27.5t25.5 -67.5q0 -42 -27 -72t-63 -30q-20 0 -35 4.5t-30 14.5z
M318 -12h53l-33 -109q8 1 21 2q34 2 45 2q76 0 122 -43.5t46 -115.5q0 -73 -58.5 -118.5t-152.5 -45.5q-52 0 -116 16t-159 53l27 64q63 -32 122 -50t99 -18q64 0 95.5 25t31.5 76q0 43 -31 67.5t-85 24.5q-20 0 -41.5 -2t-45.5 -6z" />
    <glyph glyph-name="Scaron" unicode="&#x160;" horiz-adv-x="1337" 
d="M45 12l178 652l25 -5q-12 -60 -17.5 -114.5t-5.5 -106.5q0 -176 124.5 -302t299.5 -126q136 0 220.5 73.5t84.5 190.5q0 189 -330 350q-42 20 -64 31q-134 67 -195.5 148t-61.5 190q0 168 122.5 279.5t309.5 111.5q112 0 198.5 -47.5t149.5 -144.5q47 34 86 75t72 91
l21 -2l-152 -543l-23 4q7 42 10 80t3 74q0 168 -100 275.5t-252 107.5q-130 0 -204.5 -61t-74.5 -165q0 -56 26.5 -108.5t77.5 -97.5q59 -51 234 -128q90 -39 137 -63q82 -40 136.5 -131t54.5 -192q0 -178 -144 -304.5t-348 -126.5q-114 0 -217 60t-180 172
q-52 -46 -96.5 -96t-81.5 -107zM664 1853h45l174 -244l270 244h53l-280 -348h-107z" />
    <glyph glyph-name="scaron" unicode="&#x161;" horiz-adv-x="815" 
d="M29 150q6 -82 61.5 -123t159.5 -41q90 0 150.5 51.5t60.5 126.5q0 108 -188 213q-32 18 -50 29q-59 34 -88 82t-29 112q0 131 88.5 219t223.5 88q109 0 179.5 -60t70.5 -153q0 -57 -31.5 -93t-81.5 -36q-40 0 -65 23t-25 59q0 45 30 71.5t80 26.5q6 0 13 -0.5t14 -1.5
q-9 63 -61 99.5t-133 36.5t-136 -49.5t-55 -120.5q0 -52 30.5 -89t147.5 -100q112 -60 154.5 -117t42.5 -139q0 -134 -97 -220.5t-249 -86.5q-125 0 -201 61.5t-76 161.5q0 68 34 108t91 40q39 0 64.5 -27.5t25.5 -67.5q0 -42 -27 -72t-63 -30q-20 0 -35 4.5t-30 14.5z
M306 1366h45l174 -244l270 244h53l-280 -348h-107z" />
    <glyph glyph-name="Ydieresis" unicode="&#x178;" horiz-adv-x="1526" 
d="M160 0v33q36 1 98 3q193 5 211 21q25 22 126 425q21 81 32 124l-183 649q-18 65 -159 70q-66 2 -108 4l-1 29q15 0 44 -1q227 -3 325 -3q55 0 155 1.5t246 4.5v-28q-53 -4 -130 -5q-122 -2 -122 -35q0 -3 2 -15.5t4 -24.5l150 -611q270 309 353 421t83 155q0 51 -54 82.5
t-145 31.5h-8v29q53 -2 110.5 -3t160.5 -1q86 0 143 1t113 3v-29q-92 -6 -147 -31.5t-103 -82.5q-6 -7 -38 -49q-207 -271 -448 -550l-133 -505q-2 -10 -3 -19.5t-1 -17.5q1 -32 167 -37q91 -3 150 -6l1 -33q-134 4 -249 6t-200 2q-90 0 -338 -6q-68 -1 -104 -2zM1167 1742
q35 0 61.5 -25.5t26.5 -60.5q0 -37 -25 -62.5t-63 -25.5q-35 0 -60.5 25.5t-25.5 60.5t26 61.5t60 26.5zM825 1742q35 0 61.5 -25.5t26.5 -60.5q0 -38 -24.5 -63t-63.5 -25q-35 0 -60.5 26t-25.5 62q0 33 27 59.5t59 26.5z" />
    <glyph glyph-name="Zcaron" unicode="&#x17d;" horiz-adv-x="1432" 
d="M-66 4v21q413 421 1055 1173l109 127q-52 6 -95.5 9t-76.5 3q-141 0 -208.5 -15t-115.5 -50q-69 -53 -151 -159t-156 -243l-19 4l134 482q15 0 46.5 -1t45.5 -1q86 0 222.5 6t186.5 6q46 0 129.5 -4t120.5 -4q67 0 131 3t127 9l11 -35q-34 0 -328.5 -332.5t-808.5 -951.5
q73 -10 143.5 -15t138.5 -5q124 0 193.5 20.5t126.5 69.5q78 66 170.5 185.5t179.5 266.5l17 -2l-157 -571q-54 5 -103.5 7.5t-96.5 2.5q-50 0 -149.5 -4t-151.5 -4q-77 0 -212 5t-193 5t-124.5 -2t-140.5 -6zM711 1853h45l174 -244l270 244h53l-280 -348h-107z" />
    <glyph glyph-name="zcaron" unicode="&#x17e;" horiz-adv-x="786" 
d="M41 172q1 -11 3.5 -41.5t2.5 -48.5q0 -45 -18.5 -71.5t-48.5 -26.5q-20 0 -29.5 14.5t-9.5 42.5q0 66 66 159.5t181 186.5q76 61 209.5 151t165.5 134q-7 -1 -15.5 -1.5t-23.5 -0.5q-41 0 -123.5 22.5t-121.5 22.5q-70 0 -112 -46t-73 -159l-24 4q54 201 112 287t137 86
q31 0 54 -16t43 -52q2 -4 5 -9q63 -114 118 -114q12 0 23.5 4t22.5 12q-3 23 -5 45t-2 36q0 40 17 65t44 25q17 0 27 -15.5t10 -42.5q0 -79 -73.5 -171.5t-229.5 -211.5q-61 -46 -185 -122t-153 -123q6 0 19 2q18 2 24 2q40 0 136.5 -24.5t150.5 -24.5q88 0 135 52t78 191
l26 -4q-54 -232 -111 -324t-141 -92q-37 0 -64 18t-63 70q-37 58 -73 83.5t-76 25.5h-23h-12zM291 1366h45l174 -244l270 244h53l-280 -348h-107z" />
    <glyph glyph-name="florin" unicode="&#x192;" 
d="M-45 -121q17 -22 36 -32.5t42 -10.5q85 0 138 77t134 378l131 477h-219v43h229q59 235 194 375.5t296 140.5q81 0 129.5 -40.5t48.5 -106.5q0 -57 -33.5 -95t-83.5 -38q-38 0 -60 22.5t-22 63.5q0 42 24.5 70.5t72.5 43.5q-14 26 -39.5 37.5t-67.5 11.5
q-81 0 -139.5 -100.5t-130.5 -384.5h225v-43h-235l-97 -348q-51 -187 -92.5 -277.5t-99.5 -158.5q-69 -83 -156 -132t-162 -49q-72 0 -116.5 37t-44.5 94q0 53 30.5 89t73.5 36q39 0 61.5 -20.5t22.5 -56.5q0 -37 -21.5 -61.5t-68.5 -41.5z" />
    <glyph glyph-name="circumflex" unicode="&#x2c6;" 
d="M629 1366h106l154 -348h-43l-174 244l-271 -244h-53z" />
    <glyph glyph-name="caron" unicode="&#x2c7;" 
d="M410 1366h45l174 -244l270 244h53l-280 -348h-107z" />
    <glyph glyph-name="breve" unicode="&#x2d8;" 
d="M400 1325h44q11 -84 52.5 -122t121.5 -38q87 0 160.5 39.5t136.5 120.5h52q-79 -138 -166.5 -203t-192.5 -65q-104 0 -154.5 64.5t-53.5 203.5z" />
    <glyph glyph-name="dotaccent" unicode="&#x2d9;" 
d="M649 1262q37 0 64.5 -28.5t27.5 -64.5q0 -40 -26 -67t-66 -27q-37 0 -64.5 28t-27.5 66q0 35 29 64t63 29z" />
    <glyph glyph-name="ring" unicode="&#x2da;" 
d="M664 1391q-66 0 -113 -47t-47 -113t46 -111t114 -45q66 0 110.5 45t44.5 111q0 67 -45 113.5t-110 46.5zM664 1466q96 0 164.5 -68t68.5 -165t-68.5 -166.5t-164.5 -69.5q-98 0 -166 68.5t-68 167.5q0 98 67.5 165.5t166.5 67.5z" />
    <glyph glyph-name="ogonek" unicode="&#x2db;" 
d="M348 31h45q-96 -74 -141 -141t-45 -136q0 -53 29.5 -86t76.5 -33q34 0 61.5 18t61.5 62l25 -16q-32 -66 -85.5 -102.5t-117.5 -36.5q-67 0 -110.5 42.5t-43.5 108.5q0 81 63.5 164t180.5 156z" />
    <glyph glyph-name="tilde" unicode="&#x2dc;" 
d="M899 1286h41q-24 -93 -65 -137.5t-103 -44.5q-16 0 -31 2t-30 6l-133 35q-25 6 -42.5 9t-31.5 3q-39 0 -63.5 -20t-34.5 -60h-39q18 90 58 132t105 42q14 0 34 -3t44 -9l138 -35q16 -3 28.5 -4.5t22.5 -1.5q39 0 64.5 21.5t37.5 64.5z" />
    <glyph glyph-name="hungarumlaut" unicode="&#x2dd;" 
d="M930 1247l-189 -229h-51l164 289q23 41 37.5 55t30.5 14q20 0 34.5 -15.5t14.5 -37.5q0 -14 -10 -31.5t-31 -44.5zM686 1247l-166 -229h-47l133 285q20 41 35.5 57t34.5 16q18 0 32.5 -15t14.5 -34q0 -15 -8 -32.5t-29 -47.5z" />
    <glyph glyph-name="Omega" unicode="&#x3a9;" horiz-adv-x="1569" 
d="M1112 231v-26h311l60 184h61l-117 -389h-505q120 216 181.5 435t61.5 427q0 277 -95.5 418t-283.5 141q-189 0 -284.5 -140t-95.5 -419q0 -209 61 -426t182 -436h-506l-116 389h61l59 -184h312v26q-165 183 -237 335t-72 311q0 267 183 443.5t453 176.5t452.5 -177
t182.5 -443q0 -158 -71.5 -309t-237.5 -337z" />
    <glyph glyph-name="pi" unicode="&#x3c0;" horiz-adv-x="1389" 
d="M1370 885l-43 -199h-340q-33 -137 -37 -401q-1 -58 -2 -87q-3 -125 -32.5 -183t-90.5 -58q-42 0 -64 28t-22 83q0 58 77 259t114 359h-387q-35 -142 -40 -414q-1 -49 -1 -73q-4 -127 -33 -184.5t-90 -57.5q-42 0 -63 28t-21 83q0 59 76 260t112 358h-188
q-91 0 -135.5 -41.5t-67.5 -152.5h-57q40 218 124 305.5t251 87.5h960z" />
    <glyph glyph-name="endash" unicode="&#x2013;" 
d="M989 500l-28 -109h-1053l29 109h1052z" />
    <glyph glyph-name="emdash" unicode="&#x2014;" horiz-adv-x="2048" 
d="M2013 500l-28 -109h-2077l29 109h2076z" />
    <glyph glyph-name="quoteleft" unicode="&#x2018;" horiz-adv-x="508" 
d="M487 1616q-85 -73 -128.5 -164.5t-44.5 -199.5q20 11 37.5 16.5t35.5 5.5q45 0 70.5 -28.5t25.5 -78.5q0 -48 -31.5 -81t-78.5 -33q-62 0 -97.5 49t-35.5 135q0 108 60.5 212.5t170.5 182.5z" />
    <glyph glyph-name="quoteright" unicode="&#x2019;" horiz-adv-x="508" 
d="M217 907q86 60 127 131.5t43 165.5q-12 -7 -25 -10.5t-32 -3.5q-38 0 -63 27.5t-25 70.5q0 45 29 76t73 31q56 0 88.5 -41.5t32.5 -114.5q0 -101 -62 -193t-174 -157z" />
    <glyph glyph-name="quotesinglbase" unicode="&#x201a;" horiz-adv-x="508" 
d="M-10 -281q86 62 127.5 133t44.5 162q-13 -7 -26 -10.5t-32 -3.5q-38 0 -63 27.5t-25 70.5q0 46 29.5 76.5t73.5 30.5q56 0 88.5 -41.5t32.5 -114.5q0 -99 -61.5 -190t-174.5 -158z" />
    <glyph glyph-name="quotedblleft" unicode="&#x201c;" horiz-adv-x="985" 
d="M967 1616q-86 -74 -130.5 -166t-45.5 -198q19 11 37.5 16.5t37.5 5.5q45 0 71 -28.5t26 -78.5q0 -48 -32 -81t-79 -33q-62 0 -98.5 49.5t-36.5 134.5q0 107 61.5 211.5t171.5 183.5zM487 1616q-85 -73 -128.5 -164.5t-44.5 -199.5q20 11 37.5 16.5t35.5 5.5
q45 0 70.5 -28.5t25.5 -78.5q0 -48 -31.5 -81t-78.5 -33q-62 0 -97.5 49t-35.5 135q0 108 60.5 212.5t170.5 182.5z" />
    <glyph glyph-name="quotedblright" unicode="&#x201d;" horiz-adv-x="985" 
d="M694 907q87 60 129 133t43 164q-12 -7 -25 -10.5t-32 -3.5q-38 0 -63 27.5t-25 70.5q0 45 29 76t73 31q57 0 89 -41.5t32 -114.5q0 -101 -61.5 -193t-173.5 -157zM217 907q86 60 127 131.5t43 165.5q-12 -7 -25 -10.5t-32 -3.5q-38 0 -63 27.5t-25 70.5q0 45 29 76t73 31
q56 0 88.5 -41.5t32.5 -114.5q0 -101 -62 -193t-174 -157z" />
    <glyph glyph-name="quotedblbase" unicode="&#x201e;" horiz-adv-x="985" 
d="M469 -281q86 62 127.5 133t44.5 162q-12 -7 -26 -10.5t-33 -3.5q-39 0 -63.5 27.5t-24.5 70.5q0 45 30 76t74 31q56 0 87.5 -41.5t31.5 -114.5q0 -99 -61.5 -190t-174.5 -158zM-10 -281q86 62 127.5 133t44.5 162q-13 -7 -26 -10.5t-32 -3.5q-38 0 -63 27.5t-25 70.5
q0 46 29.5 76.5t73.5 30.5q56 0 88.5 -41.5t32.5 -114.5q0 -99 -61.5 -190t-174.5 -158z" />
    <glyph glyph-name="dagger" unicode="&#x2020;" horiz-adv-x="1090" 
d="M592 908q0 2 2 11q14 94 14 142q0 27 -4 72.5t-4 64.5q0 74 44.5 135.5t88.5 61.5q23 0 37 -23.5t14 -62.5q0 -70 -72.5 -194.5t-101.5 -207.5q84 7 192.5 36.5t137.5 29.5q37 0 61.5 -18.5t24.5 -45.5q0 -34 -42 -60t-99 -26q-26 0 -115.5 28t-165.5 36q-6 -30 -9 -56.5
t-3 -52.5q0 -30 6 -61t18 -62q-86 -205 -168 -457t-178 -612h-41q100 375 153.5 638.5t63.5 426.5q50 42 83.5 98.5t56.5 137.5q-83 -7 -190 -35.5t-138 -28.5q-38 0 -62 17.5t-24 44.5q0 32 43 60t98 28q26 0 114.5 -30t164.5 -35z" />
    <glyph glyph-name="daggerdbl" unicode="&#x2021;" horiz-adv-x="1090" 
d="M330 154q87 130 137.5 288.5t50.5 296.5q0 5 -3 33.5t-5 52.5q40 23 66 59.5t42 94.5q-73 -6 -165.5 -33.5t-118.5 -27.5q-37 0 -61.5 17t-24.5 42q0 32 40 60t87 28q24 0 105 -30.5t147 -32.5q5 35 7.5 59.5t2.5 44.5q0 31 -2 72t-2 51q0 67 35 116.5t73 49.5
q22 0 36 -20.5t14 -53.5q0 -53 -57.5 -151t-80.5 -168q74 4 166 33.5t119 29.5q38 0 62 -19t24 -47q0 -30 -39.5 -55.5t-87.5 -25.5q-25 0 -105.5 28.5t-145.5 32.5q-5 -18 -7 -35t-2 -33q0 -26 8.5 -46t28.5 -40q-86 -128 -137.5 -287.5t-51.5 -287.5q0 -18 6 -69l3 -27
q-42 -25 -67.5 -61.5t-40.5 -92.5q72 4 164.5 32.5t119.5 28.5q38 0 62 -17.5t24 -45.5q0 -29 -40.5 -56.5t-86.5 -27.5q-25 0 -105.5 30.5t-146.5 32.5q-6 -32 -9 -58t-3 -46q0 -33 2 -75t2 -50q0 -66 -34.5 -115t-72.5 -49q-23 0 -37 22t-14 58q0 46 58 142.5t81 168.5
q-72 -4 -164.5 -32.5t-119.5 -28.5q-38 0 -62 19t-24 47q0 29 39.5 55t86.5 26q25 0 106 -29.5t146 -31.5q4 18 6.5 35t2.5 33q0 25 -8.5 44.5t-28.5 41.5z" />
    <glyph glyph-name="bullet" unicode="&#x2022;" horiz-adv-x="1208" 
d="M307 762q0 123 87 209t210 86q122 0 208.5 -86.5t86.5 -208.5t-87.5 -209.5t-209.5 -87.5q-123 0 -209 87t-86 210z" />
    <glyph glyph-name="ellipsis" unicode="&#x2026;" horiz-adv-x="2048" 
d="M117 102q0 52 33.5 89.5t80.5 37.5q48 0 82.5 -37.5t34.5 -89.5q0 -51 -35 -88t-82 -37q-45 0 -79.5 37.5t-34.5 87.5zM799 102q0 52 33.5 89.5t80.5 37.5q48 0 82.5 -37.5t34.5 -89.5q0 -51 -35 -88t-82 -37q-45 0 -79.5 37.5t-34.5 87.5zM1483 102q0 52 33.5 89.5
t80.5 37.5q48 0 82.5 -37.5t34.5 -89.5q0 -51 -35 -88t-82 -37q-45 0 -79.5 37.5t-34.5 87.5z" />
    <glyph glyph-name="perthousand" unicode="&#x2030;" horiz-adv-x="2294" 
d="M1767 2q53 0 88.5 34.5t67.5 115.5q47 116 76 243t29 197q0 56 -25.5 83t-77.5 27q-41 0 -74.5 -26t-62.5 -80q-51 -95 -91 -243t-40 -232q0 -56 29.5 -87.5t80.5 -31.5zM1919 729q109 0 172 -79t63 -216q0 -182 -114 -322.5t-264 -140.5q-104 0 -174 84.5t-70 214.5
q0 176 122.5 317.5t264.5 141.5zM1057 2q52 0 88 34.5t67 115.5q46 115 74.5 241.5t28.5 198.5q0 56 -24.5 83t-76.5 27q-41 0 -74.5 -26t-62.5 -80q-51 -95 -91 -243t-40 -232q0 -56 29.5 -87.5t81.5 -31.5zM1208 729q109 0 172.5 -79t63.5 -216q0 -182 -114.5 -322.5
t-264.5 -140.5q-104 0 -174 84.5t-70 214.5q0 176 122.5 317.5t264.5 141.5zM346 -43h-76l920 1366h76zM350 594q52 0 88 35t68 116q46 117 75 244t29 197q0 56 -25 83t-77 27q-41 0 -75 -26t-64 -82q-50 -95 -89.5 -242.5t-39.5 -230.5q0 -57 29.5 -89t80.5 -32zM367 565
q-110 0 -181 83.5t-71 215.5q0 177 121.5 318t265.5 141q109 0 171 -77.5t62 -215.5q0 -180 -113.5 -322.5t-254.5 -142.5z" />
    <glyph glyph-name="guilsinglleft" unicode="&#x2039;" horiz-adv-x="502" 
d="M-4 444l459 365l14 -18l-276 -359l81 -366l-22 -11z" />
    <glyph glyph-name="guilsinglright" unicode="&#x203a;" horiz-adv-x="502" 
d="M371 418l-459 -363l-16 19l278 358l-82 367l23 10z" />
    <glyph glyph-name="franc" unicode="&#x20a3;" horiz-adv-x="2253" 
d="M675 -2q-99 5 -202.5 7.5t-216.5 2.5q-83 0 -184.5 -2t-214.5 -6v37q28 1 75 2q191 5 226 113q26 85 79 275.5t113 420.5q51 193 79 305t28 127q-1 36 -157 40q-77 3 -123 5l-1 35q89 -4 165 -6t130 -2q79 0 260 7t283 7q79 0 181 -3t124 -3q62 0 93.5 0.5t57.5 1.5
l-139 -500l-18 1q3 43 4.5 90t1.5 98q0 166 -61.5 223t-301.5 57q-182 0 -215.5 -10.5t-54.5 -95.5l-127 -488q30 -2 60.5 -3t72.5 -1q142 0 214 70.5t136 277.5l25 -6q-58 -175 -103 -347.5t-77 -344.5h-23q1 9 3 25q5 62 5 86q0 117 -59 164t-217 47h-43l-154 -584
q-8 -31 -10 -45q1 -31 140 -36q87 -3 147 -7zM1325 518q69 203 146 295t175 92q74 0 121 -49.5t47 -126.5q0 -40 -10.5 -93.5t-42.5 -168.5l12 -4q120 293 181 364.5t145 71.5q57 0 91 -29.5t34 -78.5q0 -58 -37 -99t-90 -41q-36 0 -58 21.5t-22 54.5q0 43 21.5 78.5
t64.5 62.5q-6 1 -12 1.5t-13 0.5q-81 0 -170 -166.5t-280 -719.5q-24 22 -48 32.5t-53 10.5q-26 0 -45 -8.5t-32 -26.5l-17 10q121 343 182.5 549.5t61.5 265.5q0 28 -12.5 42.5t-36.5 14.5q-79 0 -144.5 -86t-134.5 -280z" />
    <glyph glyph-name="trademark" unicode="&#x2122;" horiz-adv-x="1683" 
d="M780 1442h191l137 -391l143 391h181v-25l-30 -2q-21 -2 -31.5 -15t-10.5 -38v-375q0 -25 10.5 -38t31.5 -15l30 -2v-29h-240v29l31 2q21 2 32 15.5t11 37.5v387l-172 -473h-21l-172 475v-389q0 -24 11 -37.5t32 -15.5l33 -2v-29h-197v29l34 2q20 2 31 15.5t11 37.5v371
q0 24 -11 37.5t-31 15.5l-34 4v27zM250 1442h444l11 -182h-27q-8 78 -40.5 114.5t-94.5 36.5h-17v-424q0 -24 10.5 -37.5t30.5 -15.5l33 -2v-29h-254v29l31 2q21 2 32 15.5t11 37.5v424h-17q-64 0 -96.5 -36t-40.5 -115h-26z" />
    <glyph glyph-name="partialdiff" unicode="&#x2202;" horiz-adv-x="1059" 
d="M756 621q15 87 22.5 168.5t7.5 156.5q0 129 -36.5 194.5t-108.5 65.5q-55 0 -127 -58t-108 -58t-60 22t-24 53q0 62 72 111t173 49q180 0 287 -155t107 -418q0 -335 -144.5 -556t-357.5 -221q-152 0 -253.5 108t-101.5 271q0 198 110.5 326.5t272.5 128.5
q101 0 166 -45.5t103 -142.5zM707 494q0 116 -43.5 178.5t-122.5 62.5q-109 0 -179.5 -129t-70.5 -336q0 -116 43 -177.5t123 -61.5q109 0 179.5 130t70.5 333z" />
    <glyph glyph-name="Delta" unicode="&#x2206;" horiz-adv-x="1350" 
d="M602 1174l-389 -957h768zM666 1497h30l600 -1497h-1243z" />
    <glyph glyph-name="product" unicode="&#x220f;" horiz-adv-x="1630" 
d="M53 1473h1522v-74h-191v-1718h191v-74h-596v74h192v1718h-714v-1718h192v-74h-596v74h191v1718h-191v74z" />
    <glyph glyph-name="summation" unicode="&#x2211;" horiz-adv-x="1462" 
d="M16 1473h1162l110 -365h-78l-73 227q-11 34 -41.5 49t-98.5 15h-690l809 -832v-37l-825 -735h887q61 0 79 13t29 51l72 229h78l-148 -481h-1272v41l920 815l-920 956v54z" />
    <glyph glyph-name="minus" unicode="&#x2212;" horiz-adv-x="1706" 
d="M254 682h1198v-141h-1198v141z" />
    <glyph glyph-name="fraction" unicode="&#x2215;" horiz-adv-x="342" 
d="M-268 -29h-74l950 1352h74z" />
    <glyph glyph-name="periodcentered" unicode="&#x2219;" horiz-adv-x="508" 
d="M113 647q0 49 35.5 85t84.5 36q51 0 86 -35t35 -86q0 -49 -36 -85t-85 -36q-48 0 -84 36.5t-36 84.5z" />
    <glyph glyph-name="radical" unicode="&#x221a;" horiz-adv-x="1305" 
d="M1116 1661h189v-96h-115l-594 -1606h-66l-319 883l-125 -45l-25 80l283 98l256 -709z" />
    <glyph glyph-name="infinity" unicode="&#x221e;" horiz-adv-x="1706" 
d="M915 559q50 -89 116.5 -133.5t150.5 -44.5q101 0 165 67.5t64 172.5q0 101 -59 168t-148 67q-81 0 -146.5 -66.5t-142.5 -230.5zM793 666q-49 88 -115.5 132t-151.5 44q-101 0 -165 -66.5t-64 -171.5q0 -101 59 -168t148 -67q81 0 146.5 66t142.5 231zM864 483
q-71 -136 -148.5 -199t-172.5 -63q-135 0 -228.5 112t-93.5 277q0 175 83.5 283t217.5 108q95 0 170 -61.5t150 -202.5q68 138 147 203.5t176 65.5q133 0 227.5 -113t94.5 -279q0 -174 -83.5 -281.5t-217.5 -107.5q-95 0 -168.5 58.5t-153.5 199.5z" />
    <glyph glyph-name="integral" unicode="&#x222b;" horiz-adv-x="1067" 
d="M311 -262q106 0 120 688q2 108 3 165q12 515 107 737t297 222q80 0 130 -42t50 -107q0 -54 -32 -85.5t-87 -31.5q-42 0 -70 19t-40 54q-6 15 -10.5 51t-20.5 36q-107 0 -121 -619q-4 -193 -8 -303q-17 -479 -111.5 -686t-290.5 -207q-79 0 -129.5 41.5t-50.5 106.5
q0 56 34 87.5t95 31.5q33 0 57 -14.5t39 -42.5q10 -18 15 -59.5t24 -41.5z" />
    <glyph glyph-name="approxequal" unicode="&#x2248;" horiz-adv-x="1706" 
d="M1530 586v-156q-105 -73 -199.5 -107t-189.5 -34t-285 67.5t-293 67.5q-82 0 -171.5 -36t-213.5 -122v156q108 73 204 109t183 36q115 0 305 -68.5t273 -68.5q88 0 177 35.5t210 120.5zM1530 954v-155q-105 -73 -199.5 -107.5t-189.5 -34.5t-285 68t-293 68
q-83 0 -171.5 -36t-213.5 -122v156q106 72 202 107.5t185 35.5q116 0 305.5 -67.5t272.5 -67.5q87 0 175 34.5t212 120.5z" />
    <glyph glyph-name="notequal" unicode="&#x2260;" horiz-adv-x="1706" 
d="M1208 1194l105 -82l-187 -235h326v-136h-416l-205 -262h621v-135h-709l-249 -317l-105 84l184 233h-319v135h408l204 262h-612v136h702z" />
    <glyph glyph-name="lessequal" unicode="&#x2264;" horiz-adv-x="1706" 
d="M262 162h1184v-139h-1184v139zM1444 1206v-147l-936 -309l936 -306v-149l-1182 395v121z" />
    <glyph glyph-name="greaterequal" unicode="&#x2265;" horiz-adv-x="1706" 
d="M262 162h1184v-139h-1184v139zM262 1206l1184 -395v-121l-1184 -395v149l938 306l-938 309v147z" />
    <glyph glyph-name="lozenge" unicode="&#x25ca;" horiz-adv-x="1012" 
d="M506 1409l-385 -817l385 -825l385 825zM506 1653l500 -1061l-500 -1069l-500 1069z" />
    <glyph glyph-name="apple" unicode="&#xf000;" horiz-adv-x="1618" 
d="M836 1216q-1 6 -1.5 14t-0.5 23q0 124 95 229.5t236 131.5q1 -10 1.5 -23t0.5 -39q0 -131 -103.5 -234.5t-203.5 -103.5h-8q-3 0 -7.5 1t-8.5 1zM1505 403q-114 -247 -205 -342.5t-204 -95.5q-50 0 -131.5 33t-122.5 33q-45 0 -131 -33t-127 -33q-64 0 -128.5 44
t-129.5 132q-102 140 -157.5 295.5t-55.5 300.5q0 219 125 356.5t323 137.5q68 0 155 -34t124 -34q34 0 121.5 35t152.5 35q110 0 198 -40t161 -124q-102 -65 -151.5 -145.5t-49.5 -182.5q0 -113 60 -200t173 -138z" />
    <glyph glyph-name="fi" unicode="&#xf001;" horiz-adv-x="1176" 
d="M293 848h-248l14 57h263q110 253 230.5 370.5t268.5 117.5q96 0 153.5 -42.5t57.5 -111.5q0 -54 -30.5 -87.5t-79.5 -33.5q-44 0 -70.5 24t-26.5 62q0 29 17.5 56.5t70.5 76.5q-23 16 -48 23.5t-54 7.5q-132 0 -209 -107.5t-119 -355.5h482q-99 -363 -149 -576t-50 -268
q0 -14 12.5 -21t38.5 -7q90 0 153.5 87t100.5 263l29 -8q-41 -188 -117 -284.5t-182 -96.5q-82 0 -141.5 60t-59.5 139v18q0 2 0.5 5t1.5 7l162 561q3 10 4.5 21t1.5 22t-6 16t-19 5h-36h-238q-43 -256 -122 -478.5t-204 -441.5q-120 -213 -230.5 -310t-231.5 -97
q-69 0 -111.5 38.5t-42.5 98.5q0 62 34.5 102.5t86.5 40.5q36 0 60 -24t24 -60q0 -52 -29 -90t-86 -61q16 -10 33.5 -14.5t46.5 -4.5q121 0 204.5 112t141.5 355q9 38 27 123q88 419 221 711z" />
    <glyph glyph-name="fl" unicode="&#xf002;" horiz-adv-x="1176" 
d="M481 905h307l64 199q-31 8 -49.5 32t-18.5 58q0 46 34.5 77t96.5 42q-10 26 -33.5 38.5t-62.5 12.5q-134 0 -215 -110t-123 -349zM293 848h-264l18 57h270q121 249 251.5 369.5t279.5 120.5q19 0 67 -3t76 -3q35 0 95 4q18 1 28 2q-241 -801 -302.5 -1025t-61.5 -272
q0 -30 13 -44.5t40 -14.5q70 0 134.5 90t113.5 258l26 -6q-53 -188 -130.5 -284.5t-174.5 -96.5q-81 0 -134.5 64.5t-53.5 162.5q0 18 1 34l1 3l190 584h-309q-48 -251 -125 -459.5t-186 -384.5q-145 -231 -269 -340.5t-241 -109.5q-69 0 -109.5 35.5t-40.5 97.5q0 59 36 99
t89 40q38 0 62 -24.5t24 -61.5q0 -52 -31.5 -90t-86.5 -54q15 -8 30.5 -12t34.5 -4q109 0 207 107t162 297q15 46 91.5 348.5t178.5 515.5z" />
    </font>
</defs>
</svg>
