<?xml version="1.0" standalone="no"?>
<!DOCTYPE svg PUBLIC "-//W3C//DTD SVG 1.1//EN" "http://www.w3.org/Graphics/SVG/1.1/DTD/svg11.dtd" >
<svg xmlns="http://www.w3.org/2000/svg" xmlns:xlink="http://www.w3.org/1999/xlink" version="1.1">
<metadata>
Created by FontForge 20201107 at Tue Aug 17 14:18:27 1999
 By 
Data by Anna Wheeler and Type Solutions, Inc. (c) 1993. Microsoft Corporation. All rights reserved.
</metadata>
<defs>
<font id="Modern-Regular" horiz-adv-x="454" >
  <font-face 
    font-family="Modern No. 20"
    font-weight="400"
    font-stretch="normal"
    units-per-em="1000"
    panose-1="2 7 7 4 7 5 5 2 3 3"
    ascent="800"
    descent="-200"
    x-height="427"
    cap-height="645"
    bbox="-40 -209 990 815"
    underline-thickness="50"
    underline-position="-115"
    unicode-range="U+0020-F002"
  />
<missing-glyph horiz-adv-x="471" 
d="M20 645h428v-645h-428v645zM52 32h364v581h-364v-581z" />
    <glyph glyph-name=".notdef" horiz-adv-x="471" 
d="M20 645h428v-645h-428v645zM52 32h364v581h-364v-581z" />
    <glyph glyph-name="glyph1" horiz-adv-x="0" 
 />
    <glyph glyph-name="glyph2" horiz-adv-x="356" 
 />
    <glyph glyph-name="space" unicode=" " horiz-adv-x="246" 
 />
    <glyph glyph-name="space" unicode="&#xa0;" horiz-adv-x="246" 
 />
    <glyph glyph-name="exclam" unicode="!" horiz-adv-x="227" 
d="M76 97q24 0 40 -16t16 -40t-16 -40t-40 -16t-40 16t-16 40t16 40t40 16zM70 147q0 129 -15 207q-18 90 -35 181q0 40 17 75t40 44q21 -7 39 -43.5t18 -74.5q0 -51 -15 -106q-35 -129 -35 -283h-14z" />
    <glyph glyph-name="quotedbl" unicode="&#x22;" horiz-adv-x="362" 
d="M80 380h-19q-41 209 -41 219q0 25 13.5 39.5t36.5 14.5q50 0 50 -52q0 -16 -8 -58q-16 -81 -32 -163zM231 379h-19q-11 54 -26 129t-15 91q0 25 13.5 39.5t36.5 14.5q50 0 50 -52q0 -17 -8 -59q-16 -81 -32 -163z" />
    <glyph glyph-name="numbersign" unicode="#" 
d="M104 233l39 168h-123v33h130l46 200h33l-46 -200h151l46 200h33l-46 -200h77v-33h-84l-39 -168h123v-33h-130l-46 -200h-33l46 200h-151l-46 -200h-33l46 200h-77v33h84zM137 233h151l39 168h-151z" />
    <glyph glyph-name="dollar" unicode="$" horiz-adv-x="583" 
d="M391 544q-7 29 -26 51q-23 26 -62 37v-236q80 -19 127 -60q61 -53 61 -136q0 -77 -46 -130q-49 -57 -142 -73v-115h-19v112l-52 -3l-45 2v-111h-19v114q-58 9 -91.5 35t-47.5 64q-7 21 -7 40q0 29 15 49t26.5 22t20.5 2q24 0 38 -13q18 -17 18 -50q0 -21 -14 -33t-31 -12
q-9 0 -14.5 2.5t-8.5 7.5q-1 -4 -1 -11q0 -26 27 -51t70 -35v280q-73 22 -107 58q-41 43 -41 118q0 70 42 117q38 43 106 59v36h19v-32q21 2 32 3t21 1l44 -2v30h19v-32q37 -6 60.5 -20t43.5 -37q31 -35 31 -78q0 -47 -34 -60q-9 -4 -21 -4q-46 0 -52 45q-3 21 9 38.5
t30 17.5q6 0 11 -1.5t10 -5.5zM187 9l30 -2q34 0 67 5v250l-67 17l-30 8v-278zM303 16q53 14 76.5 44.5t23.5 75.5q0 51 -23 76.5t-77 43.5v-240zM187 419q11 -3 29.5 -7t35.5 -6l32 -5v235l-42 3q-16 0 -26 -1t-29 -4v-215zM168 425v204q-38 -12 -57 -32q-24 -25 -24 -63
q0 -78 81 -109z" />
    <glyph glyph-name="percent" unicode="%" 
d="M465 125q0 -58 -40 -97q-36 -35 -82 -35t-82 33q-41 38 -41 99q0 58 41 97q36 34 82 34t82 -33q40 -37 40 -98zM403 125q0 68 -12 96.5t-48 28.5q-33 0 -46.5 -30t-13.5 -95q0 -67 12 -96.5t48 -29.5q33 0 46.5 30.5t13.5 95.5zM268 522q0 -58 -40 -97q-36 -35 -82 -35
t-82 33q-40 37 -40 99q0 59 40 97q36 34 82 34t82 -33q40 -37 40 -98zM206 522q0 67 -12 96t-48 29q-33 0 -46.5 -30t-13.5 -95q0 -67 12 -96.5t48 -29.5q33 0 46.5 30.5t13.5 95.5zM359 644h20l-251 -644h-20z" />
    <glyph glyph-name="ampersand" unicode="&#x26;" horiz-adv-x="613" 
d="M280 441q39 17 56 52q14 29 14 75q0 28 -14.5 48.5t-39.5 20.5q-35 0 -53 -22t-18 -49q0 -21 8 -35zM340 121l-144 280q-39 -11 -58 -30q-26 -25 -37 -78q-4 -19 -4 -44q0 -41 11.5 -79.5t32.5 -68.5q25 -38 50.5 -57t48.5 -19q27 0 51.5 25t48.5 71zM460 91
q15 -29 31.5 -38t37.5 -9q34 0 45 38.5t11 129.5h12q0 -122 -14 -158q-25 -63 -114 -63q-51 0 -88 54q-8 12 -35 62q-34 -64 -70 -88q-43 -28 -124 -28q-48 0 -86 46q-41 50 -41 123q0 28 5 53t19 56q26 61 63.5 96.5t77.5 44.5q-11 20 -17.5 43.5t-6.5 50.5q0 53 32.5 97
t85.5 44q48 0 76 -24t28 -68q0 -40 -32 -73q-27 -28 -73 -47l111 -214l62 109q19 35 19 51q0 22 -25 29.5t-84 7.5v11h241v-11q-42 0 -73.5 -15.5t-50.5 -50.5l-82 -149z" />
    <glyph glyph-name="quotesingle" unicode="'" horiz-adv-x="227" 
d="M80 380h-19q-41 209 -41 219q0 25 13.5 39.5t36.5 14.5q50 0 50 -52q0 -16 -8 -58q-16 -81 -32 -163z" />
    <glyph glyph-name="parenleft" unicode="(" horiz-adv-x="350" 
d="M20 223q0 152 113 283q86 100 195 148v-33q-60 -37 -103 -79q-60 -58 -92 -127q-40 -86 -40 -191q0 -107 39 -192q33 -72 91 -128q41 -39 105 -79v-33q-107 48 -194 148q-114 132 -114 283z" />
    <glyph glyph-name="parenright" unicode=")" horiz-adv-x="350" 
d="M328 223q0 -152 -113 -283q-86 -100 -195 -148v33q62 38 104 79q59 57 91 127q40 87 40 193t-39 190q-33 70 -92 128q-41 40 -104 79v33q107 -48 194 -148q114 -132 114 -283z" />
    <glyph glyph-name="asterisk" unicode="*" 
d="M158 484q-71 23 -75 24q-28 9 -45.5 18.5t-17.5 26.5q0 6 5 16q9 15 25 15q8 0 18 -6t25 -19t71 -64q-10 46 -19 92q-4 20 -4 32q0 34 30 34t30 -34q0 -12 -4 -32q-10 -46 -19 -92q34 31 69 63q16 14 26.5 20t19.5 6q15 0 24 -16q4 -8 4 -16q0 -15 -18 -26
q-10 -5 -29 -12q-44 -15 -90 -30q70 -22 89.5 -29t29.5 -13q19 -10 19 -27q0 -6 -5 -16q-9 -15 -25 -15q-8 0 -18 6t-25 19t-71 64q9 -46 19 -92q4 -20 4 -32q0 -34 -30 -34t-30 34q0 12 4 32q9 46 19 92q-30 -27 -69 -63q-17 -16 -26.5 -21t-18.5 -5q-15 0 -24 16
q-5 10 -5 16q0 15 19 26q8 5 29 12q49 17 89 30z" />
    <glyph glyph-name="plus" unicode="+" 
d="M219 179h-179v24h179v179h24v-179h179v-24h-179v-179h-24v179z" />
    <glyph glyph-name="comma" unicode="," horiz-adv-x="240" 
d="M10 -161q56 29 83 81q23 43 19 82q-6 -5 -13.5 -7.5t-15.5 -2.5q-20 0 -35 14t-15 35q0 27 16.5 45.5t47.5 18.5q28 0 44 -22t16 -59q0 -66 -30 -111q-33 -50 -111 -87z" />
    <glyph glyph-name="hyphen" unicode="-" horiz-adv-x="329" 
d="M222 240v-54h-202v54h202z" />
    <glyph glyph-name="hyphen" unicode="&#xad;" horiz-adv-x="329" 
d="M222 240v-54h-202v54h202z" />
    <glyph glyph-name="period" unicode="." horiz-adv-x="227" 
d="M81 113q26 0 43.5 -17.5t17.5 -43.5t-17.5 -43.5t-43.5 -17.5t-43.5 17.5t-17.5 43.5t17.5 43.5t43.5 17.5z" />
    <glyph glyph-name="slash" unicode="/" horiz-adv-x="200" 
d="M271 645h20l-251 -645h-20z" />
    <glyph glyph-name="zero" unicode="0" 
d="M232 -9q-83 0 -145 89q-67 96 -67 242t66 241q62 90 146 90t146 -89q67 -96 67 -242t-64.5 -238.5t-148.5 -92.5zM232 0q40 0 60 81t20 242q0 155 -3 193q-10 129 -77 129q-39 0 -59 -80.5t-20 -241.5q0 -156 3 -194q10 -129 76 -129z" />
    <glyph glyph-name="one" unicode="1" 
d="M57 596q121 0 165 11.5t81 45.5h13v-587q0 -29 4 -37q2 -4 13.5 -8.5t41 -7.5t65.5 -3v-10h-383v10q43 0 74.5 3t43 7.5t15 11t3.5 34.5v464q0 27 -5.5 34.5t-17.5 12t-36 6t-77 1.5v12z" />
    <glyph glyph-name="two" unicode="2" 
d="M409 214v-41q0 -40 -3.5 -70.5t-15.5 -52.5q-16 -30 -38.5 -44.5t-48.5 -14.5q-31 0 -58 17t-46 46q-27 42 -38 51q-14 12 -43 12q-16 0 -30 -23q-18 -30 -18 -84h-18q0 129 57 194q31 36 104 67q51 22 76 72t25 115q0 57 -21 114q-17 46 -39 60q-16 10 -47 10
q-60 0 -100 -64q-35 -56 -35 -116q0 -12 1 -17q5 14 13.5 21t20.5 7q15 0 27 -11.5t17 -34.5q2 -7 2 -19q0 -27 -15 -46t-37 -19q-11 0 -19 4q-18 9 -27.5 33t-9.5 58q0 78 43 141q51 74 135 74q108 0 161 -84q39 -62 39 -144q0 -66 -28 -101q-31 -39 -104 -55
q-112 -25 -151 -56t-55 -86q8 7 24 7q7 0 107 -25q48 -12 83 -12q7 0 15.5 0.5t23.5 3.5q34 7 47 32q9 18 9 52q-1 21 -1 31z" />
    <glyph glyph-name="three" unicode="3" 
d="M206 365q5 -1 15 -1q39 0 58.5 34t19.5 86q0 93 -26 130q-22 31 -64 31t-73.5 -21.5t-40.5 -63.5q4 3 8.5 4.5t9.5 1.5q17 0 31.5 -17.5t10.5 -39.5t-20 -35t-37 -13q-35 0 -45 34q-3 12 -3 25q0 50 45 90q49 43 122 43q90 0 149 -54q53 -49 53 -110q0 -55 -51 -88
q-44 -28 -119 -39q90 0 138 -39q52 -43 52 -127q0 -100 -93 -159q-72 -46 -142 -46q-76 0 -130 50.5t-54 115.5q0 38 20.5 57t49.5 19q19 0 30 -7q25 -13 25 -46q0 -25 -16 -43t-43 -18q-6 0 -12.5 1t-12.5 3q-5 -37 31 -77q41 -45 99 -45q42 0 79 36q49 47 49 134
q0 99 -22.5 141.5t-61.5 42.5q-14 0 -29.5 -5.5t-31.5 -10t-29 -4.5q-24 0 -28 18q1 11 9.5 15.5t22.5 4.5q12 0 27.5 -3t29.5 -5z" />
    <glyph glyph-name="four" unicode="4" 
d="M224 211v269l-169 -269h169zM334 176v-109q0 -29 4 -37q2 -4 13.5 -8.5t37.5 -7.5t47 -3v-11h-340v11q37 0 67.5 3t42 7.5t15 11t3.5 34.5v109h-204l296 469h18v-434h102v-35h-102z" />
    <glyph glyph-name="five" unicode="5" 
d="M418 656q-30 -65 -63.5 -94.5t-84.5 -29.5q-50 0 -137 32l-29 -227q38 48 71.5 63.5t88.5 15.5q69 0 118.5 -63.5t49.5 -153.5q0 -72 -64 -136q-72 -72 -178 -72q-62 0 -107 37q-49 40 -49 103q0 38 18 57t44 19q37 0 49 -30q6 -15 6 -33q0 -20 -8 -28q-20 -23 -44 -23
q-6 0 -11 2t-9 5q-2 -8 -2 -11q0 -31 30 -58q35 -31 87 -31q62 0 92 66q27 59 27 165q0 102 -19.5 137t-53.5 35q-65 0 -110 -54q-34 -41 -41 -84l-12 2l50 386q55 -22 90 -32q53 -15 94 -15q34 0 57.5 10.5t37.5 36.5z" />
    <glyph glyph-name="six" unicode="6" 
d="M365 590q-5 20 -24 34q-28 21 -73 21q-46 0 -76.5 -38.5t-37.5 -109.5q-2 -17 -2 -38v-129q17 44 39 62q29 24 82 24q69 0 117 -55t48 -146q0 -104 -55 -164t-152 -60q-100 0 -147 81t-47 228q0 141 56 239q65 114 180 114q65 0 99 -33q29 -28 29 -69q0 -43 -29 -54
q-15 -5 -25 -5q-22 0 -38 13t-16 34q0 25 12.5 41t34.5 16q6 0 12 -1.5t13 -4.5zM245 397q-54 0 -77 -62q-18 -48 -18 -130q0 -97 9 -133q18 -72 78 -72q45 0 66.5 49.5t21.5 146.5q0 73 -9 115q-19 86 -71 86z" />
    <glyph glyph-name="seven" unicode="7" 
d="M80 593q17 40 34 50t53 10q42 0 93.5 -62.5t77.5 -62.5q35 0 52.5 33.5t17.5 91.5h11q1 -7 1 -21q0 -41 -16.5 -86t-36.5 -76q-46 -70 -58 -95q-30 -63 -30 -223q0 -89 -16 -125t-50 -36q-27 0 -42 19q-18 23 -18 76q0 40 22 94q27 65 95 168q36 53 71.5 106t44.5 76
q-18 -8 -31.5 -11.5t-28.5 -3.5q-19 0 -39 4q-34 10 -55 15q-40 11 -67 11q-22 0 -39 -7q-33 -14 -46 -68q-8 -32 -8 -70h-11q0 30 2 84t2 78v11q0 39 -6 80h11z" />
    <glyph glyph-name="eight" unicode="8" 
d="M332 371q17 22 28.5 52.5t11.5 64.5q0 80 -42 121q-36 35 -94 35q-55 0 -94 -31.5t-39 -89.5q0 -83 96 -116q20 -7 133 -36zM343 366q45 -11 74 -58.5t29 -113.5q0 -78 -54 -137q-61 -66 -161 -66q-89 0 -150 59t-61 138q0 44 37 86q2 2 56 52q-34 20 -52 54.5t-18 79.5
q0 77 51 132q57 61 147 61q85 0 139 -64q44 -52 44 -103q0 -68 -81 -120zM127 319q-24 -20 -33.5 -61.5t-9.5 -88.5q0 -83 39 -126t105 -43q68 0 108 38t40 99q0 103 -90 137q-80 22 -159 45z" />
    <glyph glyph-name="nine" unicode="9" 
d="M108 54q12 -23 26 -34q26 -19 71 -19q46 0 76.5 37.5t36.5 100.5t6 175q-16 -43 -41 -62q-30 -24 -83 -24q-69 0 -117 55t-48 146q0 104 56 164t148 60q94 0 147.5 -83.5t53.5 -226.5q0 -141 -58 -239q-67 -113 -182 -113q-65 0 -101 34q-31 29 -31 69q0 44 33 53
q11 3 21 3q22 0 37 -14t15 -36q0 -23 -12.5 -36.5t-32.5 -13.5q-6 0 -11 1t-10 3zM228 247q56 0 78 54q17 42 17 138q0 88 -13 133q-21 72 -74 72q-45 0 -66 -49t-21 -147q0 -99 19 -150t60 -51z" />
    <glyph glyph-name="colon" unicode=":" horiz-adv-x="227" 
d="M81 509q26 0 43.5 -17.5t17.5 -43.5t-17.5 -43.5t-43.5 -17.5t-43.5 17.5t-17.5 43.5t17.5 43.5t43.5 17.5zM81 113q26 0 43.5 -17.5t17.5 -43.5t-17.5 -43.5t-43.5 -17.5t-43.5 17.5t-17.5 43.5t17.5 43.5t43.5 17.5z" />
    <glyph glyph-name="semicolon" unicode=";" horiz-adv-x="227" 
d="M10 -161q56 29 83 81q23 43 19 82q-6 -5 -13.5 -7.5t-15.5 -2.5q-20 0 -35 14t-15 35q0 27 16.5 45.5t47.5 18.5q28 0 44 -22t16 -59q0 -66 -30 -111q-33 -50 -111 -87zM94 509q26 0 43.5 -17.5t17.5 -43.5t-17.5 -43.5t-43.5 -17.5t-43.5 17.5t-17.5 43.5t17.5 43.5
t43.5 17.5z" />
    <glyph glyph-name="less" unicode="&#x3c;" horiz-adv-x="300" 
d="M203 427h22l-123 -217l89 -210h-27l-144 211z" />
    <glyph glyph-name="equal" unicode="=" 
d="M383 144h-303v24h303v-24zM383 213h-303v24h303v-24z" />
    <glyph glyph-name="greater" unicode="&#x3e;" horiz-adv-x="300" 
d="M42 427l183 -216l-144 -211h-27l89 210l-123 217h22z" />
    <glyph glyph-name="question" unicode="?" horiz-adv-x="405" 
d="M118 96q24 0 40 -16t16 -40t-16 -40t-40 -16t-40 16t-16 40t16 40t40 16zM50 526q8 13 25 13q20 0 34.5 -14.5t14.5 -42.5q0 -7 -2 -18.5t-15 -25.5t-32 -14q-21 0 -39 19q-9 9 -13 22.5t-4 32.5q0 57 35 102q41 53 107 53q88 0 134 -73q34 -54 34 -120q0 -48 -26.5 -87
t-84 -73t-76.5 -54q-25 -27 -25 -67q0 -15 5 -42h-17q0 76 10 102t57 64q33 26 47 62t14 95q0 86 -10 123q-16 60 -65 60q-57 0 -89 -44q-24 -33 -24 -65l1 -7q1 -3 4 -1z" />
    <glyph glyph-name="at" unicode="@" horiz-adv-x="880" 
d="M769 133q-57 -76 -127 -105q-44 -18 -105 -18q-39 0 -58.5 22.5t-19.5 67.5q-28 -49 -54 -69.5t-61 -20.5q-53 0 -80 30t-27 89q0 44 16 101q21 74 79 138q71 78 153 78q43 0 49 -35q2 -12 2 -56l22 80h90l-87 -301q-1 -3 -9 -34.5t-8 -43.5q0 -14 5.5 -21.5t18.5 -7.5
q35 0 65 14q46 21 81 68.5t51 102.5t16 115q0 124 -66 211q-71 94 -191 94q-176 0 -302 -119.5t-126 -292.5q0 -179 98 -295q102 -121 272 -121q134 0 233 77.5t142 204.5h14q-43 -132 -146 -213.5t-243 -81.5q-179 0 -300.5 125t-121.5 306q0 174 151 301q146 122 331 122
q131 0 221 -98q86 -94 86 -222q0 -52 -15.5 -99.5t-48.5 -92.5zM498 231q28 98 28 145q0 59 -41 59q-47 0 -73 -42t-61 -164q-22 -78 -25 -90q-12 -47 -12 -71t9.5 -36t33.5 -12q32 0 69 51q42 58 72 160z" />
    <glyph glyph-name="A" unicode="A" horiz-adv-x="689" 
d="M398 237l-92 254l-92 -254h184zM403 225h-194l-31 -88q-12 -33 -12 -57q0 -37 28 -53t79 -16v-11h-253v11q69 0 107 52q21 29 54 120l169 470h21l215 -586q15 -41 30 -48.5t90 -7.5v-11h-368v11q75 0 103 5.5t28 22.5l-2 10z" />
    <glyph glyph-name="B" unicode="B" horiz-adv-x="712" 
d="M287 349h93q73 0 108 27q42 32 42 107q0 84 -34 118t-115 34h-48q-21 0 -31 -3t-12.5 -13t-2.5 -39v-231zM486 0h-466v11q105 0 126 8q10 4 14 11.5t4 36.5v513q0 28 -4 36q-2 4 -13 8q-29 11 -127 11v10h409q108 0 172 -58q51 -46 51 -95q0 -60 -31 -90
q-41 -41 -155 -58q120 -15 176 -69q46 -44 46 -113q0 -56 -52 -105q-60 -57 -150 -57zM405 339h-118v-272q0 -30 3.5 -38t15 -12.5t30 -5.5t86.5 -1q71 0 106 43q32 39 32 109q0 83 -37 128q-40 49 -118 49z" />
    <glyph glyph-name="C" unicode="C" horiz-adv-x="547" 
d="M540 268q0 -145 -55.5 -211t-160.5 -66q-119 0 -201 72q-98 86 -98 247q0 157 99 257q85 86 182 86q47 0 82 -17q45 -22 82 -72l51 94h4v-290l-9 5q0 129 -71 207q-59 65 -124 65q-87 0 -125 -80.5t-38 -242.5q0 -159 41 -240.5t125 -81.5q95 0 146 56q61 66 61 212h9z
" />
    <glyph glyph-name="D" unicode="D" horiz-adv-x="727" 
d="M414 0h-389v11q45 0 77 3t44 7.5t14 8.5q4 7 4 37v512q0 28 -4 36q-2 4 -13 8q-32 12 -122 12v10h390q113 0 204 -83q105 -95 105 -243q0 -146 -93 -235q-88 -84 -217 -84zM414 11q95 0 138.5 77t43.5 231q0 146 -44 228q-47 88 -138 88q-48 0 -73.5 -1.5t-36 -5.5
t-14 -11.5t-3.5 -37.5v-512q0 -29 3.5 -38t13.5 -13t43 -4.5t67 -0.5z" />
    <glyph glyph-name="E" unicode="E" horiz-adv-x="694" 
d="M278 335v-267q0 -28 3 -35t19 -12.5t37 -6.5t75 -1q114 0 172.5 67.5t73.5 216.5h12v-297h-650v11q89 0 118 11q10 4 13.5 10.5t3.5 34.5v512q0 29 -4 36q-2 4 -13 8t-45 8t-73 4v10h617v-250h-12q0 77 -39 147q-52 93 -147 93q-38 0 -76.5 -0.5t-68.5 -9.5
q-9 -4 -12.5 -10.5t-3.5 -35.5v-233q104 0 129 21q38 32 53 172h11v-395h-11q-15 137 -52 169q-26 22 -130 22z" />
    <glyph glyph-name="F" unicode="F" horiz-adv-x="623" 
d="M156 67v512q0 29 -4 36q-2 4 -13.5 8t-45 8t-73.5 4v10h618v-250h-12q0 77 -39 147q-52 93 -147 93q-65 0 -91.5 -2t-53.5 -10l-9 -4q-7 -7 -7 -40v-233q107 0 133 21q42 34 54 172h11v-395h-11q0 135 -46 169q-29 22 -141 22v-268q0 -29 4 -37q2 -4 14 -8.5t46.5 -7.5
t93.5 -3v-11h-417v11q43 0 74.5 3t43 7.5t15 11t3.5 34.5z" />
    <glyph glyph-name="G" unicode="G" horiz-adv-x="674" 
d="M570 0h-9q0 39 -12.5 58.5t-31.5 19.5q-34 0 -57 -20q-11 -10 -21 -20q-38 -29 -62.5 -38t-68.5 -9q-113 0 -190 71q-93 85 -93 246q0 156 102 258q87 87 179 87q62 0 100 -18q48 -23 95 -87l56 105v-282h-10q-21 133 -85 206q-60 68 -141 68q-77 0 -121.5 -85
t-44.5 -240q0 -154 41.5 -237t114.5 -83q68 0 106 36t38 105v121q0 27 -3 34t-13 11t-40.5 7t-52.5 3v10h344v-10q-22 0 -55 -4t-44.5 -6t-14.5 -7q-6 -10 -6 -38v-262z" />
    <glyph glyph-name="H" unicode="H" horiz-adv-x="813" 
d="M564 67v258h-285v-258q0 -29 4 -37q2 -4 13.5 -8.5t42.5 -7.5t73 -3v-11h-392v11q43 0 74.5 3t43 7.5t15 11t3.5 34.5v512q0 29 -4 36q-2 4 -13.5 8t-45 8t-73.5 4v10h393v-10q-85 0 -117 -12q-10 -4 -12 -8q-5 -9 -5 -36v-237h285v237q0 28 -5 36q-2 4 -13 8t-45 8
t-72 4v10h393v-10q-45 0 -74 -3t-45 -9l-9 -4q-7 -7 -7 -40v-512q0 -29 4 -37q2 -4 12 -8q29 -11 119 -11v-11h-392v11q88 0 117 11q11 4 13 8q4 7 4 37z" />
    <glyph glyph-name="I" unicode="I" horiz-adv-x="415" 
d="M279 581v-514q0 -29 4 -37q2 -4 12 -8q29 -11 119 -11v-11h-394v11q43 0 74.5 3t43 7.5t15 11t3.5 34.5v514q0 28 -4 35q-2 4 -13 8q-29 11 -119 11v10h395v-10q-43 0 -74.5 -3t-44.5 -8l-10 -4q-7 -6 -7 -39z" />
    <glyph glyph-name="J" unicode="J" horiz-adv-x="467" 
d="M154 0q70 0 89 55q12 34 12 147v377q0 28 -5 36q-2 4 -13.5 8t-45.5 8t-78 4v10h396v-10q-83 0 -115 -12l-9 -4q-7 -7 -7 -40v-369q0 -97 -61 -158t-163 -61q-43 0 -78 26.5t-46 56.5t-11 54q0 65 48 92q17 10 37 10q29 0 50 -21t21 -55q0 -31 -23.5 -50.5t-52.5 -19.5
q-13 0 -24 4.5t-21 12.5q-2 -10 -2 -15q0 -34 31.5 -60t70.5 -26z" />
    <glyph glyph-name="K" unicode="K" horiz-adv-x="738" 
d="M279 280l228 227q47 47 47 78q0 25 -28 37.5t-82 12.5v10h282v-10q-48 0 -91 -27q-27 -17 -123 -116l-66 -67l191 -359q21 -39 38.5 -47.5t90.5 -8.5v-10h-347v10q62 0 81.5 3t19.5 15q0 4 -1 7l-9 18l-148 287l-83 -81v-192q0 -29 4 -37q2 -4 13.5 -8.5t41.5 -7.5t67 -3
v-11h-385v11q41 0 73 4t41.5 7.5t14.5 5.5q7 6 7 39v514q0 28 -4 35q-2 4 -13 8q-29 11 -119 11v10h394v-10q-89 0 -118 -11l-10 -4q-7 -6 -7 -39v-301z" />
    <glyph glyph-name="L" unicode="L" horiz-adv-x="678" 
d="M413 13q121 0 185 73.5t64 222.5h12v-309h-654v11q44 0 75 3t42.5 7.5t15 11t3.5 34.5v512q0 29 -4 36q-2 4 -13.5 8t-45 8t-73.5 4v10h411v-10q-56 0 -87.5 -3t-44.5 -8t-15 -9q-5 -9 -5 -36v-511q0 -29 4 -37q2 -4 12 -8q34 -10 118 -10z" />
    <glyph glyph-name="M" unicode="M" horiz-adv-x="857" 
d="M281 645l169 -466l140 466h277v-10q-91 0 -120 -12q-10 -4 -12 -8q-5 -9 -5 -36v-512q0 -30 4 -37q2 -4 14.5 -8.5t43.5 -7.5t75 -3v-11h-385v11q36 0 66.5 3t42 7.5t13.5 8.5q4 8 4 37l-1 544q0 17 -4 17t-9 -15l-183 -613h-22l-216 614l-8 15q-3 0 -3 -17v-419
q0 -111 29.5 -146.5t111.5 -35.5v-11h-283v11q70 0 99 36t29 122v309q0 88 -27 122.5t-101 34.5v11z" />
    <glyph glyph-name="N" unicode="N" horiz-adv-x="695" 
d="M592 198v278q0 91 -31 125t-112 34v10h283v-10q-71 0 -99 -34t-28 -125v-480h-23l-399 528l-11 13q-3 0 -3 -18v-326q0 -110 30 -146t112 -36v-11h-291v11q78 0 107 32t29 126v340q0 56 -30 88q-36 38 -106 38v10h206l347 -450q13 -17 16 -17t3 20z" />
    <glyph glyph-name="O" unicode="O" horiz-adv-x="634" 
d="M629 323q0 -147 -99 -244q-90 -88 -203 -88q-115 0 -203 84q-99 95 -99 248q0 147 99 243q90 87 203 87q115 0 203 -83q99 -94 99 -247zM497 323q0 158 -42.5 240t-127.5 82q-84 0 -126.5 -82t-42.5 -240q0 -156 42.5 -239.5t126.5 -83.5q83 0 126.5 83.5t43.5 239.5z
" />
    <glyph glyph-name="P" unicode="P" horiz-adv-x="646" 
d="M291 301h101q83 0 116 43q28 37 28 118q0 85 -37 129t-114 44h-48q-21 0 -31 -3t-12.5 -12.5t-2.5 -38.5v-280zM291 292v-225q0 -29 4 -37q2 -4 14 -8.5t47 -7.5t96 -3v-11h-432v11q51 0 84.5 3t45.5 7.5t14 8.5q4 8 4 37v514q0 27 -4 35q-2 4 -12 8q-31 11 -132 11v10
h388q119 0 188 -55q65 -52 65 -136q0 -57 -50 -104q-62 -58 -168 -58h-152z" />
    <glyph glyph-name="Q" unicode="Q" horiz-adv-x="647" 
d="M357 -5l-30 -4q-115 0 -203 84q-99 94 -99 247q0 146 99 243q90 88 203 88q116 0 203 -83q99 -94 99 -248q0 -106 -51 -183q-45 -67 -123 -107q10 -34 21.5 -70t19.5 -48q32 -45 67 -45q29 0 49.5 34t20.5 92q0 20 -3 43h8q2 -10 3 -23t1 -24q0 -74 -36 -122.5t-99 -48.5
q-24 0 -53 9q-45 15 -71 58.5t-26 107.5zM440 63q30 40 43.5 101t13.5 158q0 158 -42.5 240.5t-127.5 82.5q-89 0 -128.5 -81t-39.5 -243q0 -120 26.5 -197.5t82.5 -108.5q-13 11 -19 25.5t-6 29.5q0 27 15.5 50.5t28.5 27.5t23 6.5t21 2.5q28 0 51 -16q17 -12 34 -34
q6 -7 12 -19t12 -25zM357 4l7 40q3 11 4 21t1 21q0 28 -14.5 42t-43.5 14q-25 0 -42 -22t-17 -50q0 -22 13 -40.5t39 -27.5q14 -2 21 -2q12 0 20.5 2t11.5 2z" />
    <glyph glyph-name="R" unicode="R" horiz-adv-x="691" 
d="M287 347h93q73 0 108 27q42 32 42 108q0 84 -34.5 118.5t-114.5 34.5h-48q-21 0 -31 -3t-12.5 -12.5t-2.5 -38.5v-234zM692 144v-33q0 -59 -11 -82q-18 -38 -71 -38q-69 0 -91 52q-18 42 -18 160v21q0 10 1 21q0 53 -25 71.5t-72 18.5h-118v-268q0 -30 3.5 -38t15 -12.5
t47 -5.5t74.5 -1v-10h-407v11q105 0 126 8q10 4 14 11.5t4 36.5v514q0 28 -4 35q-2 4 -13 8q-29 11 -127 11v10h409q108 0 172 -58q51 -46 51 -95q0 -58 -40 -95q-48 -45 -152 -57q106 -21 140 -119q17 -49 17 -148q0 -29 5 -42t24 -13q21 0 29 33.5t8 92.5h9z" />
    <glyph glyph-name="S" unicode="S" horiz-adv-x="526" 
d="M368 596q58 51 66 57v-218l-9 3q-14 88 -73 147.5t-134 59.5q-52 0 -90 -24q-47 -29 -47 -85q0 -54 51 -88q43 -29 138 -51q123 -30 161 -57q62 -45 62 -150q0 -99 -64 -153q-54 -46 -131 -46q-59 0 -105.5 19t-80.5 63q-60 -79 -63 -82v276l9 1q19 -86 43 -138
q20 -44 47 -73q53 -57 154 -57q47 0 86 31q45 36 45 90q0 66 -61 104q-42 26 -146.5 54.5t-145.5 58.5q-60 45 -60 131q0 77 54.5 130.5t129.5 53.5q64 0 105 -19q13 -6 59 -38z" />
    <glyph glyph-name="T" unicode="T" horiz-adv-x="610" 
d="M612 645v-285h-14q-23 163 -73 224q-41 51 -121 51q-20 0 -22 -2q-4 -3 -4 -26v-540q0 -29 4 -37q2 -4 14 -8.5t46 -7.5t92 -3v-11h-435v11q57 0 91 3t46 7.5t15.5 11t3.5 34.5v539q0 26 -6 28q-3 1 -21 1q-78 0 -119 -50q-50 -62 -75 -223h-14v283h592z" />
    <glyph glyph-name="U" unicode="U" horiz-adv-x="704" 
d="M603 192q0 -108 -79 -163q-55 -38 -115 -38q-113 0 -189 47q-84 52 -84 144v397q0 28 -4 36q-2 4 -12 8q-32 12 -110 12v10h386v-10q-46 0 -74.5 -3t-41.5 -8t-15 -9q-5 -9 -5 -36v-377q0 -100 30 -143q36 -52 130 -52q52 0 101 37q69 52 69 148v261q0 103 -32 142.5
t-105 39.5v10h268v-10q-75 0 -100 -42q-18 -30 -18 -101v-300z" />
    <glyph glyph-name="V" unicode="V" horiz-adv-x="678" 
d="M348 -9l-213 588q-14 40 -31 48t-94 8v10h365v-10q-69 0 -94.5 -6.5t-25.5 -26.5q0 -8 5 -23l156 -422l107 315q17 53 17 84q0 79 -103 79v10h258v-10q-86 0 -125 -78q-12 -25 -36 -93l-159 -473h-27z" />
    <glyph glyph-name="W" unicode="W" horiz-adv-x="967" 
d="M504 483l-126 -487h-33l-220 583q-15 41 -30.5 48.5t-84.5 7.5v10h342v-10q-61 0 -84.5 -6.5t-23.5 -25.5q0 -10 6 -24l155 -419l91 348l-21 71q-12 40 -29 48t-87 8v10h341v-10q-61 0 -84.5 -6.5t-23.5 -27.5q0 -11 4 -22l129 -420l111 311q17 49 17 80q0 85 -120 85v10
h257v-10q-71 0 -105 -73q-5 -11 -37 -98l-164 -468h-32z" />
    <glyph glyph-name="X" unicode="X" horiz-adv-x="731" 
d="M326 298l-170 281q-22 36 -47 45.5t-99 9.5v11h393v-11q-120 0 -120 -31q0 -9 9 -24l112 -184l91 123q24 33 24 61q0 55 -86 55v11h268v-11q-61 0 -105 -28q-27 -17 -110 -123l-75 -102l192 -314q22 -37 46 -46.5t100 -9.5v-11h-393v11q120 0 120 31q0 10 -9 25l-132 216
l-100 -137q-22 -28 -22 -57q0 -34 29.5 -56t88.5 -22v-11h-321v11q52 0 105.5 39.5t110.5 114.5z" />
    <glyph glyph-name="Y" unicode="Y" horiz-adv-x="725" 
d="M333 273l-180 306q-21 37 -44 46.5t-99 9.5v10h394v-10q-62 0 -90.5 -8t-28.5 -28q0 -11 9 -26l160 -268l109 184q22 39 22 69q0 77 -110 77v10h268v-10q-65 0 -107 -51q-43 -71 -67 -110l-112 -189v-218q0 -29 4 -37q2 -4 14 -8.5t46 -7.5t91 -3v-11h-434v11q57 0 91 3
t46 7.5t14 8.5q4 8 4 37v206z" />
    <glyph glyph-name="Z" unicode="Z" horiz-adv-x="559" 
d="M569 0h-559l355 545q48 74 48 81q0 9 -33 9q-141 0 -182 -25q-73 -45 -92 -215h-14v250h481l-355 -545q-48 -73 -48 -79q0 -8 31 -8q137 0 179 8q79 15 117 72q43 64 58 209h14v-302z" />
    <glyph glyph-name="bracketleft" unicode="[" horiz-adv-x="325" 
d="M20 0v645h230v-10q-43 0 -74.5 -3t-44.5 -8l-10 -4q-7 -6 -7 -39v-514q0 -28 3 -35t13 -11q29 -11 120 -11v-10h-230z" />
    <glyph glyph-name="backslash" unicode="\" horiz-adv-x="304" 
d="M40 645l251 -645h-20l-251 645h20z" />
    <glyph glyph-name="bracketright" unicode="]" horiz-adv-x="353" 
d="M250 0h-230v10q91 0 120 11q10 4 12 8q4 8 4 38v514q0 28 -4 35q-2 4 -13 8q-29 11 -119 11v10h230v-645z" />
    <glyph glyph-name="asciicircum" unicode="^" horiz-adv-x="262" 
d="M20 567l98 78l94 -65l2 -48l-104 65l-91 -65z" />
    <glyph glyph-name="underscore" unicode="_" horiz-adv-x="728" 
d="M-1 -174h634v-35h-634v35z" />
    <glyph glyph-name="grave" unicode="`" horiz-adv-x="140" 
d="M139 532l-119 113h98l42 -113h-21z" />
    <glyph glyph-name="a" unicode="a" horiz-adv-x="463" 
d="M278 110v133q-12 -16 -35.5 -19.5t-45.5 -6.5q-29 -7 -46 -32q-20 -30 -20 -84q0 -58 11.5 -78.5t36.5 -20.5q38 0 68.5 31.5t30.5 76.5zM281 290v58q0 40 -13 54t-56 14q-35 0 -61 -13t-34 -35q4 1 10 1q19 0 31 -15t12 -34q0 -22 -15 -36t-35 -14q-13 0 -23 7
q-29 19 -29 48q0 14 6 32q14 39 70 57q40 13 81 13q74 0 112 -28q34 -25 34 -63v-221q0 -60 3 -74q7 -34 36 -34q26 0 35 27t9 78q0 14 -0.5 28t-0.5 29v9h11v-44q0 -21 1 -40q0 -58 -14 -78q-18 -25 -73 -25q-43 0 -64 15q-25 18 -33 61q-21 -49 -63 -66q-25 -10 -67 -10
t-73 20q-43 27 -43 82q0 54 42 91q42 36 102 41t81 16t21 49z" />
    <glyph glyph-name="b" unicode="b" horiz-adv-x="473" 
d="M179 152q0 -94 35 -129q22 -22 64 -22q41 0 59 57.5t18 151.5q0 112 -20 159t-57 47q-40 0 -67 -47q-32 -55 -32 -152v-65zM85 -9v592q0 20 -6 28t-12 10q-17 5 -77 5v10l189 17v-353q0 46 29.5 86.5t69.5 40.5q90 0 141 -81q40 -64 40 -135q0 -91 -51.5 -155.5
t-118.5 -64.5q-61 0 -90.5 15.5t-62.5 62.5l-42 -78h-9z" />
    <glyph glyph-name="c" unicode="c" horiz-adv-x="396" 
d="M317 352q-4 32 -28 48.5t-60 16.5q-56 0 -78 -50t-22 -158q0 -100 28 -151.5t75 -51.5q56 0 95 37q49 47 49 138h9q0 -88 -46 -139t-126 -51q-65 0 -121 52q-67 62 -67 158q0 103 68 169q59 57 123 57q43 0 80 -15q56 -23 69 -71q5 -18 5 -31q0 -32 -30 -49
q-11 -7 -26 -7q-18 0 -32.5 13.5t-14.5 36.5q0 21 13.5 34.5t36.5 13.5z" />
    <glyph glyph-name="d" unicode="d" horiz-adv-x="492" 
d="M305 139q0 -49 -24 -92q-31 -56 -86 -56q-72 0 -119 55q-51 60 -51 165q0 72 47 138q55 78 139 78q45 0 71 -50q18 -35 23 -77v283q0 20 -6 28t-17 10q-25 5 -112 5v10l229 17v-594q0 -20 3 -26q2 -3 9 -6q21 -7 82 -7v-10l-188 -19v148zM300 212q0 100 -23 152t-63 52
q-48 0 -66.5 -44.5t-18.5 -161.5q0 -106 11 -148q16 -61 66 -61q34 0 61 51q33 61 33 160z" />
    <glyph glyph-name="e" unicode="e" horiz-adv-x="399" 
d="M128 206q0 -107 25.5 -155t77.5 -48q55 0 97 37q51 45 51 122h9q0 -75 -48 -123t-128 -48q-67 0 -122 51q-65 60 -65 157q0 105 64 171q56 57 126 57q65 0 108 -38q63 -56 63 -183h-258zM302 219q0 96 -17.5 146.5t-56.5 50.5q-55 0 -77.5 -48t-22.5 -149h174z" />
    <glyph glyph-name="f" unicode="f" horiz-adv-x="353" 
d="M197 398v-349q0 -21 3 -26q2 -3 10 -6q21 -7 83 -7v-10h-283v10q60 0 81 7l7 3q6 5 6 29v349h-94v18h94v59q0 67 46.5 122.5t107.5 55.5q39 0 64 -12.5t32.5 -31t7.5 -34.5q0 -28 -27 -45q-11 -7 -25 -7q-19 0 -33.5 13.5t-14.5 35.5q0 40 39 47q-7 14 -14 20t-22 6
q-40 0 -54 -22.5t-14 -83.5v-123h93v-18h-93z" />
    <glyph glyph-name="g" unicode="g" horiz-adv-x="436" 
d="M117 170q-32 16 -50 42t-18 64q0 64 58 109q53 41 117 41q19 0 40 -5t39 -13v24q0 47 16.5 61.5t50.5 14.5q15 0 26 -10t11 -26q0 -35 -33 -35q-34 0 -34 32q0 6 2 11t5 10q-20 -3 -26.5 -17.5t-6.5 -39.5q1 -21 1 -31q39 -19 61.5 -50t22.5 -72q0 -61 -58 -100
q-52 -35 -117 -35q-46 0 -87 16q-35 0 -57 -11q-29 -15 -29 -49q0 -15 25 -23q24 -9 94 -9h58q89 0 135 -24q58 -30 58 -100q0 -74 -52.5 -114t-137.5 -40q-101 0 -161 33.5t-60 76.5q0 28 33 47q23 13 72 27q-44 16 -65 34q-29 25 -29 65q0 42 25 69t71 27zM310 285
q0 63 -17 94q-20 37 -69 37q-45 0 -65.5 -35t-20.5 -96q0 -70 17.5 -100t68.5 -30q46 0 66 31.5t20 98.5zM237 -200q68 0 105.5 28t37.5 68q0 48 -30.5 65t-112.5 17q-94 0 -129 -21q-30 -18 -30 -62q0 -42 24 -63q37 -32 135 -32z" />
    <glyph glyph-name="h" unicode="h" horiz-adv-x="556" 
d="M213 249v-200q0 -20 3 -26q2 -3 9.5 -6t27 -5t34.5 -2v-10h-267v10q29 0 52.5 2t40.5 8q6 5 6 29v523q0 13 -0.5 22t-4.5 14q-7 10 -13 12q-18 5 -80 5v10l192 17v-353q6 40 29 77q29 46 69 50q8 0 17.5 1t13.5 1q70 0 105 -38q28 -31 28 -76v-265q0 -20 3 -26
q2 -3 10 -6t29 -5t42 -2v-10h-258v10q16 0 37 2t37 8q6 5 6 29v270q0 43 -9 64q-14 33 -53 33q-42 0 -72 -55q-25 -46 -34 -112z" />
    <glyph glyph-name="i" unicode="i" horiz-adv-x="320" 
d="M213 426v-377q0 -20 3 -26q2 -3 9 -6q21 -7 87 -7v-10h-292v10q29 0 52.5 2t40.5 8q6 5 6 29v310q0 19 -4 24q-7 10 -13 12q-18 5 -82 5v10zM160 653q24 0 40 -16t16 -40t-16 -40t-40 -16t-40 16t-16 40t16 40t40 16z" />
    <glyph glyph-name="j" unicode="j" horiz-adv-x="326" 
d="M136 -94v446q0 10 -0.5 17.5t-4.5 12.5q-7 10 -14 12q-18 5 -83 5v10l195 17v-462q0 -66 -51 -119t-113 -53q-38 0 -64 12.5t-33.5 30.5t-7.5 34q0 30 29 47q11 7 26 7q18 0 32.5 -13.5t14.5 -36.5q0 -21 -13.5 -34.5t-36.5 -13.5q10 -16 17 -19t29 -3q37 0 57.5 23
t20.5 80zM176 653q24 0 40 -16t16 -40t-16 -40t-40 -16t-40 16t-16 40t16 40t40 16z" />
    <glyph glyph-name="k" unicode="k" horiz-adv-x="526" 
d="M208 180v-131q0 -20 3 -26q2 -3 9.5 -6t26.5 -5t31 -2v-10h-258v10q60 0 81 7l7 3q6 5 6 29v534q0 20 -6 28.5t-11 9.5q-16 5 -76 5v10l187 17v-454l126 125q30 29 30 52q0 19 -21 29.5t-64 10.5v11h229v-11q-38 0 -59.5 -11t-58.5 -45l-62 -61l128 -254
q11 -22 27.5 -28.5t54.5 -6.5v-10h-244v10q33 0 51 1.5t18 14.5q0 6 -8 22l-94 186z" />
    <glyph glyph-name="l" unicode="l" horiz-adv-x="315" 
d="M213 49q0 -20 3 -26q2 -3 9 -6q21 -7 87 -7v-10h-292v10q29 0 52.5 2t40.5 8q6 5 6 29v534q0 20 -6 28t-12 10q-18 5 -80 5v10l192 17v-604z" />
    <glyph glyph-name="m" unicode="m" horiz-adv-x="760" 
d="M446 305q8 46 23 73q25 43 69 48q7 0 15.5 1t12.5 1q62 0 99 -38q31 -32 31 -76v-265q0 -19 3 -25q2 -4 9.5 -7t27 -5t32.5 -2v-10h-238v10q24 0 37 1.5t28 9.5q6 5 6 28v253q0 47 -8 73q-13 41 -47 41q-35 0 -58 -33q-26 -37 -40 -134v-200q0 -20 3 -26q2 -3 9 -5.5
t25.5 -5t34.5 -2.5v-10h-238v10q38 0 59 7l7 3q6 5 6 29v253q0 48 -8 73q-13 41 -48 41q-45 0 -70 -57q-17 -40 -27 -114v-196q0 -20 3 -26q2 -3 9.5 -6t27 -5t32.5 -2v-10h-253v10q21 0 42.5 2t38.5 8q6 5 6 29v303q0 9 -0.5 18t-4.5 14q-7 10 -12 12q-15 5 -69 5v10
l180 17v-129q7 48 21 76q23 46 68 51q10 1 17.5 1.5t11.5 0.5q64 0 97 -36q30 -33 30 -87z" />
    <glyph glyph-name="n" unicode="n" horiz-adv-x="537" 
d="M202 245v-196q0 -20 3 -26q2 -3 9.5 -6t27 -5t34.5 -2v-10h-256v10q22 0 43.5 2t38.5 8q6 5 6 29v303q0 9 -0.5 18t-4.5 14l-6 10q-10 7 -76 7v10l181 17v-129q6 43 26 76q28 46 59 49.5t40 3.5q63 0 100 -38q31 -32 31 -76v-265q0 -20 3 -26q2 -3 10 -6t29 -5t40 -2v-10
h-256v10q16 0 37 2t37 8q6 5 6 29v253q0 48 -8 73q-13 41 -48 41q-46 0 -75 -57q-22 -43 -31 -114z" />
    <glyph glyph-name="o" unicode="o" horiz-adv-x="448" 
d="M433 210q0 -97 -67 -161q-61 -58 -137 -58q-78 0 -136 54q-68 63 -68 165q0 97 67 160q61 57 137 57q77 0 136 -54q68 -62 68 -163zM329 210q0 111 -19 156q-22 52 -81 52q-54 0 -77 -50t-23 -158q0 -110 20.5 -160t79.5 -50q54 0 77 51t23 159z" />
    <glyph glyph-name="p" unicode="p" horiz-adv-x="486" 
d="M193 284q6 52 28 90q31 53 82 53q72 0 119 -55q51 -60 51 -165q0 -72 -47 -138q-55 -78 -139 -78q-44 0 -70 47q-18 33 -24 76v-274q0 -20 3 -26q2 -3 9 -6q21 -7 87 -7v-10h-292v10q29 0 52.5 2t40.5 8q6 5 6 29v517q0 20 -6 28t-12 10q-18 5 -80 5v10l192 17v-143z
M198 206q0 -100 23 -152t63 -52q48 0 66.5 44.5t18.5 161.5q0 106 -11 148q-16 61 -66 61q-34 0 -61 -51q-33 -61 -33 -160z" />
    <glyph glyph-name="q" unicode="q" horiz-adv-x="476" 
d="M399 -160q0 -20 3 -26q2 -3 9 -6q21 -7 87 -7v-10h-292v10q29 0 52.5 2t40.5 8q6 5 6 32v275q0 -46 -29.5 -86.5t-69.5 -40.5q-90 0 -141 81q-40 64 -40 135q0 91 51.5 155.5t118.5 64.5q61 0 90.5 -15.5t62.5 -62.5l42 78h9v-587zM305 266q0 94 -35 129q-22 22 -64 22
q-41 0 -59 -57.5t-18 -151.5q0 -112 20 -159t57 -47q40 0 67 47q32 55 32 152v65z" />
    <glyph glyph-name="r" unicode="r" horiz-adv-x="392" 
d="M119 359q0 20 -4 25q-7 10 -13 12q-18 5 -82 5v10l193 15v-126q4 41 28 77q33 50 83 50q19 0 41 -12.5t29.5 -31.5t7.5 -34q0 -40 -33 -55q-8 -4 -21 -4q-20 0 -34 14t-14 42q0 18 13.5 36t31.5 14q-6 20 -36 20q-29 0 -58 -42q-38 -54 -38 -139v-186q0 -20 3 -26
q2 -3 9 -6q21 -7 87 -7v-10h-292v10q29 0 52.5 2t40.5 8q6 5 6 29v310z" />
    <glyph glyph-name="s" unicode="s" horiz-adv-x="349" 
d="M262 396q39 29 41 31v-150l-9 2q-14 60 -50 98q-39 41 -86 41q-36 0 -59 -14q-31 -19 -31 -63q0 -36 34 -56q24 -14 96 -31t101 -40q41 -32 41 -102q0 -65 -44 -96q-35 -25 -88 -25q-44 0 -63 6q-28 9 -61 43q-40 -47 -42 -49v177h7q17 -62 28 -86q15 -33 32 -49
q23 -22 43.5 -27.5t61.5 -5.5q31 0 51 16q24 19 24 54q0 45 -32 67q-25 17 -88.5 30t-98.5 42q-42 35 -42 93q0 52 35.5 88.5t86.5 36.5q39 0 68 -13q38 -17 44 -18z" />
    <glyph glyph-name="t" unicode="t" horiz-adv-x="309" 
d="M306 213v-46q0 -23 1 -44q0 -70 -16 -96q-22 -36 -85 -36q-60 0 -88 29t-28 83v284h-80v10q81 20 122 95q33 60 33 135h18v-211h116v-29h-116v-272q0 -54 4 -70q10 -38 45 -38q41 0 54 44q9 30 9 114v48h11z" />
    <glyph glyph-name="u" unicode="u" horiz-adv-x="521" 
d="M338 364q0 23 -5.5 30.5t-18 9.5t-81.5 2v10l199 11v-339q0 -13 0.5 -26t4.5 -19l6 -10q10 -7 76 -7v-10l-181 -16v127q-6 -41 -30 -76q-31 -45 -76 -50q-6 -1 -12 -1h-12q-59 0 -92 37q-28 31 -28 75v261q0 18 -4.5 24.5t-13.5 7.5t-47 1h-23v10l182 11v-329
q0 -51 12.5 -69t36.5 -18q45 0 76 54t31 117v182z" />
    <glyph glyph-name="v" unicode="v" horiz-adv-x="430" 
d="M209 -5l-140 384q-9 23 -11 27q-6 10 -35 10h-23v11h230v-11q-23 0 -46.5 -0.5t-23.5 -12.5l6 -20l94 -257l68 196q12 35 12 54q0 40 -67 40v11h168v-11q-38 0 -59 -18.5t-47 -92.5l-106 -310h-20z" />
    <glyph glyph-name="w" unicode="w" horiz-adv-x="652" 
d="M343 312l-94 -317h-20l-147 384q-10 26 -22 31.5t-60 5.5v11h239v-11q-23 0 -46.5 -0.5t-23.5 -12.5q0 -6 6 -20l98 -264l63 214l-14 46q-8 26 -14.5 31.5t-31.5 5.5h-23v11h221v-11q-23 0 -45.5 -0.5t-22.5 -12.5q0 -6 5 -21l77 -256l67 196q12 35 12 54q0 40 -67 40v11
h168v-11q-38 0 -59 -18.5t-47 -92.5l-106 -310h-20z" />
    <glyph glyph-name="x" unicode="x" horiz-adv-x="475" 
d="M208 189l-117 190q-14 23 -29 30t-62 7v11h259v-11q-22 0 -46.5 -1t-24.5 -13q0 -7 10 -23l67 -110l50 70q18 29 18 46q0 31 -55 31v11h178v-11q-63 0 -103 -45q-10 -11 -40 -54l-41 -58l131 -212q16 -25 23 -29q14 -8 61 -8v-10h-259v10q77 0 77 16q0 9 -8 21l-83 132
l-64 -89q-17 -25 -17 -41q0 -39 79 -39v-10h-212v10q36 0 75.5 25t71.5 69z" />
    <glyph glyph-name="y" unicode="y" horiz-adv-x="450" 
d="M218 -96q-21 -61 -39 -85q-21 -28 -54 -28q-42 0 -62 8.5t-25.5 29t-5.5 32.5q0 30 28 45q11 6 23 6q19 0 33.5 -14.5t14.5 -38.5q0 -43 -40 -48q7 -7 14.5 -8t15.5 -1q27 0 44 20.5t36 75.5l32 90l-144 391q-9 23 -11 27q-6 10 -35 10h-23v11h230v-11q-23 0 -46.5 -0.5
t-23.5 -12.5l6 -20l95 -257l67 196q12 35 12 54q0 40 -67 40v11h168v-11q-38 0 -59 -18.5t-47 -92.5z" />
    <glyph glyph-name="z" unicode="z" horiz-adv-x="416" 
d="M399 0h-379l247 357l35 54q0 5 -24 5h-40q-71 0 -99 -24q-41 -35 -59 -147h-7v182h343l-250 -362q-33 -48 -33 -51q0 -4 21 -4h100q46 0 78 38q44 51 58 164h9v-212z" />
    <glyph glyph-name="braceleft" unicode="{" horiz-adv-x="272" 
d="M20 217v10q22 6 33 19q15 19 15 58v236q0 66 48 93q36 20 99 20v-8q-38 0 -47.5 -24.5t-9.5 -95.5v-212q0 -37 -39 -67q-31 -24 -50 -24q12 0 34 -13q55 -33 55 -78v-212q0 -58 3 -75q8 -45 54 -45v-8q-84 0 -118 33q-29 28 -29 80v236q0 39 -15 58q-11 13 -33 19z" />
    <glyph glyph-name="bar" unicode="|" horiz-adv-x="173" 
d="M38 645h28v-854h-28v854z" />
    <glyph glyph-name="braceright" unicode="}" horiz-adv-x="272" 
d="M215 217q-22 -6 -33 -19q-15 -19 -15 -58v-236q0 -66 -48 -93q-36 -20 -99 -20v8q38 0 49 28q8 21 8 92v212q0 37 39 67q31 24 50 24q-12 0 -34 13q-55 33 -55 78v212q0 58 -3 75q-8 45 -54 45v8q84 0 118 -33q29 -28 29 -80v-236q0 -39 15 -58q11 -13 33 -19v-10z" />
    <glyph glyph-name="asciitilde" unicode="~" horiz-adv-x="433" 
d="M20 545q43 61 66 80.5t48 19.5t59.5 -15t56.5 -24q5 -2 10 -3t10 -1q18 0 37 21q10 11 20 23l11 -5q-45 -63 -65 -81t-46 -18q-16 0 -49 15q-46 21 -68 28q-11 3 -19 3q-19 0 -33 -15q-17 -22 -26 -33z" />
    <glyph glyph-name="exclamdown" unicode="&#xa1;" horiz-adv-x="221" 
d="M76 343q-24 0 -40 16t-16 40t16 40t40 16t40 -16t16 -40t-16 -40t-40 -16zM70 293h14q0 -155 34 -278q16 -58 16 -106q0 -40 -17 -75t-40 -43q-22 8 -39.5 44t-17.5 75q0 51 15 105q35 126 35 278z" />
    <glyph glyph-name="cent" unicode="&#xa2;" 
d="M268 409q-21 8 -44 8q-56 0 -78 -50t-22 -158q0 -77 18 -125zM316 532h20l-47 -119q25 -10 44.5 -27.5t25.5 -40t6 -35.5q0 -32 -30 -49q-11 -7 -26 -7q-18 0 -32.5 13.5t-14.5 36.5q0 21 13.5 34.5t36.5 13.5q-4 32 -28 48l-132 -341q15 -26 33.5 -39.5t41.5 -13.5
q56 0 95 37q49 47 49 138h9q0 -88 -46 -139t-126 -51q-17 0 -36 5t-39 15l-48 -124h-20l52 133q-43 27 -68 69q-29 49 -29 112q0 103 68 169q59 57 123 57q18 0 28.5 -1.5t32.5 -7.5z" />
    <glyph glyph-name="sterling" unicode="&#xa3;" horiz-adv-x="600" 
d="M306 274q0 -68 -39 -149q25 -5 66 -20q27 -10 61 -10q95 0 95 125h13q0 -111 -29 -167q-32 -62 -101 -62q-40 0 -80 23l-60 43q-27 -27 -43 -37q-32 -20 -70 -20q-43 0 -71 20.5t-28 47.5q0 22 19 42t58 32q21 6 49 6q42 0 84 -13q5 18 5 39q0 39 -15 63l-22 37h-135v25
h122q-29 64 -29 137q0 98 67 160q59 55 129 55q42 0 63 -11.5t52 -50.5q18 -22 29 -58.5t11 -70.5q0 -25 -5.5 -42t-17.5 -28q-19 -16 -40 -16t-35.5 16.5t-14.5 41.5q0 28 15 46t37 18q8 0 16.5 -3t16.5 -9q-6 68 -32 107q-32 48 -91 48q-37 0 -64 -28q-35 -36 -35 -106
q0 -61 19 -120q26 -80 27 -86h133v-25h-130zM214 71q-25 17 -44 28q-35 21 -59 21q-18 0 -38 -8t-28.5 -19.5t-8.5 -24.5q0 -14 10 -28t29 -21.5t40 -7.5q26 0 52 14t47 46z" />
    <glyph glyph-name="currency" unicode="&#xa4;" 
d="M114 336l-46 45l18 18l45 -46q44 36 100 36q59 0 100 -36l45 46l18 -18l-45 -46q35 -43 35 -99t-35 -99l45 -46l-18 -18l-45 46q-44 -36 -100 -36q-57 0 -99 36l-46 -46l-18 18l46 46q-36 42 -36 99q0 59 36 100zM231 366q-63 0 -99 -44q-31 -38 -31 -86q0 -65 46 -101
q37 -29 84 -29q61 0 98 44q32 38 32 86q0 61 -44 98q-38 32 -86 32z" />
    <glyph glyph-name="yen" unicode="&#xa5;" horiz-adv-x="805" 
d="M467 67q0 -29 4 -37q2 -4 14 -8.5t46 -7.5t91 -3v-11h-434v11q57 0 91 3t46 7.5t14 8.5q4 8 4 37v106h-166v33h166v66h-166v33h147l-161 274q-21 37 -44 46.5t-99 9.5v10h394v-10q-62 0 -90.5 -8t-28.5 -28q0 -11 9 -26l160 -268l109 184q22 39 22 69q0 77 -110 77v10
h268v-10q-65 0 -107 -51q-43 -71 -67 -110l-100 -169h153v-33h-165v-66h165v-33h-165v-106z" />
    <glyph glyph-name="brokenbar" unicode="&#xa6;" horiz-adv-x="94" 
d="M33 645h28v-328h-28v328zM33 119h28v-328h-28v328z" />
    <glyph glyph-name="section" unicode="&#xa7;" horiz-adv-x="547" 
d="M231 141q93 -18 137 -36q13 15 19 28.5t6 34.5q0 57 -23 84q-30 35 -117 51t-132 34q-8 -10 -14 -20q-10 -18 -10 -42q0 -57 23 -84q29 -35 111 -50zM470 230q0 -49 -23.5 -81.5t-62.5 -51.5q43 -26 61 -62q15 -30 15 -74q0 -84 -58.5 -127t-146.5 -43h-12q-38 0 -68 8
q-50 13 -81.5 47.5t-31.5 73.5q0 44 34 57q11 3 21 3q46 0 52 -42q3 -20 -9 -36t-30 -16q-5 0 -10.5 2t-10.5 5q10 -52 58 -74q34 -16 86 -16q61 0 100.5 25.5t39.5 73.5q0 51 -34 82q-35 31 -120 48q-123 24 -171 64t-48 117q0 49 25 84q21 29 60 49q-44 27 -59.5 59
t-15.5 77q0 84 58.5 127t146.5 43h12q38 0 68 -8q50 -13 81.5 -47.5t31.5 -73.5q0 -44 -34 -57q-11 -3 -21 -3q-46 0 -52 42q-3 20 9 36t30 16q6 0 11 -1.5t10 -5.5q-10 52 -58 74q-34 16 -86 16q-61 0 -100.5 -25.5t-39.5 -73.5q0 -51 35 -82q34 -31 119 -48
q123 -24 171 -64t48 -117z" />
    <glyph glyph-name="dieresis" unicode="&#xa8;" horiz-adv-x="309" 
d="M70 645q21 0 36 -15t15 -36t-15 -36t-36 -15t-36 15t-15 36t15 36t36 15zM245 645q21 0 36 -15t15 -36t-15 -36t-36 -15t-36 15t-15 36t15 36t36 15z" />
    <glyph glyph-name="copyright" unicode="&#xa9;" horiz-adv-x="765" 
d="M351 653q137 0 234 -97t97 -234t-97 -234t-234 -97t-234 97t-97 234t97 234t234 97zM351 634q-129 0 -220.5 -91.5t-91.5 -220.5t91.5 -220.5t220.5 -91.5t220.5 91.5t91.5 220.5t-91.5 220.5t-220.5 91.5zM499 288q0 -88 -34 -128.5t-99 -40.5q-73 0 -123 44
q-60 53 -60 151q0 97 61 159q52 53 111 53q28 0 54 -12.5t47 -42.5l31 57l3 -177l-5 3q0 79 -44 127q-36 39 -77 39q-51 0 -75.5 -50.5t-24.5 -147.5q0 -99 25.5 -148.5t76.5 -49.5q59 0 90 34q37 40 37 130h6z" />
    <glyph glyph-name="ordfeminine" unicode="&#xaa;" horiz-adv-x="344" 
d="M138 481v71q-6 -9 -17 -11t-23.5 -4t-21.5 -17t-9 -44q0 -31 5.5 -42t17.5 -11q19 0 33.5 16.5t14.5 41.5zM140 578v31q0 21 -6.5 28.5t-27.5 7.5q-38 0 -46 -25q11 3 18.5 -5.5t7.5 -20.5q0 -27 -24 -27q-7 0 -11 4q-15 11 -15 26q0 8 3 17q7 21 30 29.5t44 8.5
q35 0 52.5 -14t17.5 -35v-120q0 -34 2.5 -46t17.5 -12q14 0 17 18t3 37v37h6v-45q0 -31 -8 -43.5t-35 -12.5q-21 0 -31.5 8.5t-14.5 32.5q-11 -27 -30 -36q-11 -5 -33 -5q-21 0 -36 11q-21 15 -21 44q0 30 20 49t50 22t40 9t10 27zM19 399h211v-20h-211v20z" />
    <glyph glyph-name="guillemotleft" unicode="&#xab;" horiz-adv-x="320" 
d="M317 427h22l-123 -217l89 -210h-27l-144 211zM203 427h22l-123 -217l89 -210h-27l-144 211z" />
    <glyph glyph-name="logicalnot" unicode="&#xac;" 
d="M58 225h346v-137h-24v113h-322v24z" />
    <glyph glyph-name="registered" unicode="&#xae;" horiz-adv-x="765" 
d="M351 653q137 0 234 -97t97 -234t-97 -234t-234 -97t-234 97t-97 234t97 234t234 97zM351 634q-129 0 -220.5 -91.5t-91.5 -220.5t91.5 -220.5t220.5 -91.5t220.5 91.5t91.5 220.5t-91.5 220.5t-220.5 91.5zM304 336h59q42 0 65 18q27 21 27 66q0 51 -21.5 72.5
t-70.5 21.5q-44 0 -50 -2q-5 -2 -7 -7q-2 -7 -2 -25v-144zM554 212v-20q0 -45 -12 -59t-39 -14q-42 0 -54 29q-13 28 -13 101q1 17 1 27q0 25 -9 37q-13 17 -50 17h-74v-165q0 -17 3 -24q2 -4 8 -7q5 -2 76 -4v-7h-251v7h26q42 0 49.5 4t9.5 7q3 6 3 24v315q0 24 -10 27
q-16 7 -78 7v7h252q67 0 106 -36q31 -28 31 -58q0 -36 -25 -59q-30 -28 -94 -34q66 -15 87 -75q11 -31 11 -91q0 -18 3 -26t15 -8q14 0 18.5 20t4.5 58h5z" />
    <glyph glyph-name="macron" unicode="&#xaf;" horiz-adv-x="630" 
d="M-1 815h634v-35h-634v35z" />
    <glyph glyph-name="degree" unicode="&#xb0;" horiz-adv-x="140" 
d="M90 811q29 0 49.5 -20.5t20.5 -49.5t-20.5 -49.5t-49.5 -20.5t-49.5 20.5t-20.5 49.5t20.5 49.5t49.5 20.5zM90 788q-19 0 -33 -14t-14 -33t14 -33t33 -14t33 14t14 33t-14 33t-33 14z" />
    <glyph glyph-name="plusminus" unicode="&#xb1;" 
d="M422 0h-382v24h179v155h-179v24h179v179h24v-179h179v-24h-179v-155h179v-24z" />
    <glyph glyph-name="twosuperior" unicode="&#xb2;" horiz-adv-x="201" 
d="M175 491v-15q0 -16 -1.5 -26t-6.5 -19q-14 -22 -37 -22q-29 0 -45 23q-11 15 -16 19q-6 4 -18 4q-6 0 -13 -10t-7 -29h-8q0 47 24 71q13 13 39.5 22.5t37.5 28.5q10 18 10 42q0 23 -8 41.5t-15.5 22.5t-21.5 4q-28 0 -44.5 -25.5t-12.5 -46.5q4 10 14 10q15 0 20 -17
q3 -11 -4 -21t-18 -10l-8 2q-16 6 -16 34q0 29 19.5 54t55.5 25q47 0 69 -31q17 -23 17 -54q0 -24 -12 -37q-13 -14 -49 -21t-48 -13q-25 -12 -35 -38q5 3 11 3t45 -9q22 -5 35 -5q5 0 18 2t17.5 9t4.5 20v13z" />
    <glyph glyph-name="threesuperior" unicode="&#xb3;" horiz-adv-x="218" 
d="M100 547q21 -4 30.5 9.5t9.5 34.5q0 25 -8 41t-31 16q-19 0 -32 -6.5t-17 -22.5q5 3 15.5 -1.5t8.5 -18.5q-3 -17 -22 -17q-15 0 -19 13q-7 20 13 39t56 19q39 0 62.5 -19t23.5 -41q0 -21 -19 -32t-54 -14q40 0 61 -15.5t21 -47.5q0 -36 -40 -58q-31 -17 -61 -17
q-31 0 -54.5 18.5t-23.5 42.5q0 13 8 20t18 7h6l5 -2q10 -6 10 -20q0 -19 -20 -19q-6 0 -9 1q-3 -13 14 -28t42 -15t41 20q13 16 13 41q0 37 -10 53q-10 15 -27 15q-3 0 -10 -1.5t-15.5 -3.5t-12.5 -2q-10 0 -11 6q0 7 13 7q18 -2 25 -2z" />
    <glyph glyph-name="acute" unicode="&#xb4;" horiz-adv-x="140" 
d="M41 532h-21l42 113h98z" />
    <glyph glyph-name="mu" unicode="&#xb5;" horiz-adv-x="557" 
d="M125 -157q-32 0 -32 34q0 26 2 38.5t16 84.5q3 17 3 29q0 17 -1 26q-5 45 -5 57v261q0 18 -4.5 24.5t-13.5 7.5t-47 1h-23v10l182 11v-329q0 -51 12.5 -69t36.5 -18q45 0 76 54t31 117v182q0 23 -5.5 30.5t-18 9.5t-81.5 2v10l199 11v-339q0 -13 0.5 -26t4.5 -19l6 -10
q10 -7 76 -7v-10l-181 -16v127q-6 -42 -30 -79q-32 -48 -76 -48q-40 0 -64 5t-43 25q-3 -11 -3 -15l2 -11q10 -48 14 -75t4 -48q0 -16 -11 -27t-26 -11z" />
    <glyph glyph-name="paragraph" unicode="&#xb6;" horiz-adv-x="571" 
d="M202 645h293v-32h-84v-822h-32v822h-94v-822h-32v490h-51q-76 0 -129 53t-53 129t53 129t129 53z" />
    <glyph glyph-name="cedilla" unicode="&#xb8;" horiz-adv-x="138" 
d="M85 0l-15 -25q26 0 40 -19q13 -19 8 -39q-5 -22 -21.5 -30t-40.5 -8q-25 0 -36 11v11q14 -10 30 -10q12 0 19 4.5t9 16.5q2 15 -3 25q-6 10 -17 10q-19 0 -26 -8l36 61h17z" />
    <glyph glyph-name="onesuperior" unicode="&#xb9;" horiz-adv-x="193" 
d="M20 634q51 0 66 3.5t32 16.5h5v-214q0 -11 7 -16q11 -3 44 -3v-5h-154v5q39 0 47 3t8 16v169q0 15 -9 18t-46 3v4z" />
    <glyph glyph-name="ordmasculine" unicode="&#xba;" horiz-adv-x="332" 
d="M20 400h198v-20h-198v20zM218 536q0 -53 -31 -86t-68 -33t-66 30q-33 34 -33 89q0 53 31 85t68 32q38 0 66 -29q33 -34 33 -88zM168 536q0 56 -12 84t-37 28q-24 0 -36.5 -28t-12.5 -84q0 -57 12.5 -85.5t36.5 -28.5q25 0 37 28.5t12 85.5z" />
    <glyph glyph-name="guillemotright" unicode="&#xbb;" horiz-adv-x="320" 
d="M11 427l183 -216l-144 -211h-27l89 210l-123 217h22zM125 427l183 -216l-144 -211h-27l89 210l-123 217h22z" />
    <glyph glyph-name="onequarter" unicode="&#xbc;" horiz-adv-x="390" 
d="M328 645h20l-251 -645h-20zM19 615q51 0 66 3.5t32 16.5h5v-214q0 -11 7 -16q11 -3 44 -3v-5h-154v5q39 0 47 3t8 16v169q0 15 -9 18t-46 3v4zM280 94v99l-69 -99h69zM326 79v-42q0 -14 7 -16.5t16.5 -3.5t21.5 -1v-6h-146v6q36 0 45.5 3.5t9.5 17.5v42h-87l126 182h7
v-167h45v-15h-45z" />
    <glyph glyph-name="onehalf" unicode="&#xbd;" horiz-adv-x="390" 
d="M320 645h20l-251 -645h-20zM19 615q51 0 66 3.5t32 16.5h5v-214q0 -11 7 -16q11 -3 44 -3v-5h-154v5q39 0 47 3t8 16v169q0 15 -9 18t-46 3v4zM368 85v-15q0 -16 -1.5 -26t-6.5 -19q-14 -22 -37 -22q-29 0 -45 23q-11 15 -16 19q-6 4 -18 4q-6 0 -13 -10t-7 -29h-8
q0 47 24 71q13 13 39.5 22.5t37.5 28.5q10 18 10 42q0 23 -8 41.5t-15.5 22.5t-21.5 4q-28 0 -44.5 -25.5t-12.5 -46.5q4 10 14 10q15 0 20 -17q3 -12 -3 -21.5t-16 -9.5l-8 2q-16 7 -16 36t18.5 53t53.5 24q47 0 69 -31q17 -23 17 -54q0 -24 -12 -37q-13 -14 -49 -21
t-48 -13q-25 -12 -35 -38q5 3 11 3t45 -9q22 -5 35 -5q5 0 18 2t17.5 9t4.5 20v13z" />
    <glyph glyph-name="threequarters" unicode="&#xbe;" horiz-adv-x="390" 
d="M334 645h20l-251 -645h-20zM280 96v100l-71 -100h71zM327 80v-43q0 -14 7.5 -16.5t17 -4t22.5 -1.5v-5h-151v5q40 0 48.5 4t8.5 18v43h-90l130 187h7v-171h47v-16h-47zM100 529q21 -4 30.5 9.5t9.5 34.5q0 25 -8 41t-31 16q-19 0 -32 -6.5t-17 -22.5q8 5 18 -1t8 -18
q-3 -17 -24 -17q-14 0 -19 12q-7 20 13 39t56 19q39 0 62.5 -19t23.5 -41q0 -21 -19 -32t-54 -14q40 0 61 -15.5t21 -47.5q0 -36 -40 -58q-31 -17 -61 -17q-31 0 -54.5 18.5t-23.5 42.5q0 13 8 20t19 7q4 0 12.5 -3.5t8.5 -17.5q0 -20 -21 -20q-6 0 -9 1q-3 -13 14 -28
t42 -15t41 20q13 16 13 41q0 37 -10 53q-10 15 -27 15q-3 0 -10 -1.5t-15.5 -3.5t-12.5 -2q-10 0 -11 6q0 7 13 7q18 -2 25 -2z" />
    <glyph glyph-name="questiondown" unicode="&#xbf;" horiz-adv-x="387" 
d="M231 348q-24 0 -40 16t-16 40t16 40t40 16t40 -16t16 -40t-16 -40t-40 -16zM299 -82q-4 -6 -10 -9.5t-15 -3.5q-20 0 -33 13q-16 16 -16 44q0 7 2 18.5t15 25.5t32 14q21 0 39 -19q9 -9 13 -22.5t4 -32.5q0 -57 -35 -102q-41 -53 -107 -53q-88 0 -134 73q-34 54 -34 120
q0 48 26.5 87t84 73t76.5 54q25 27 25 67q0 15 -5 42h17q0 -76 -10 -102t-57 -64q-33 -26 -47 -62t-14 -95q0 -86 10 -123q16 -60 65 -60q57 0 89 44q24 33 24 65l-1 7q-1 3 -4 1z" />
    <glyph glyph-name="Agrave" unicode="&#xc0;" horiz-adv-x="689" 
d="M398 237l-92 254l-92 -254h184zM403 225h-194l-31 -88q-12 -33 -12 -57q0 -37 28 -53t79 -16v-11h-253v11q69 0 107 52q21 29 54 120l169 470h21l215 -586q15 -41 30 -48.5t90 -7.5v-11h-368v11q75 0 103 5.5t28 22.5l-2 10zM409 681l-119 113h98l42 -113h-21z" />
    <glyph glyph-name="Aacute" unicode="&#xc1;" horiz-adv-x="689" 
d="M398 237l-92 254l-92 -254h184zM403 225h-194l-31 -88q-12 -33 -12 -57q0 -37 28 -53t79 -16v-11h-253v11q69 0 107 52q21 29 54 120l169 470h21l215 -586q15 -41 30 -48.5t90 -7.5v-11h-368v11q75 0 103 5.5t28 22.5l-2 10zM311 681h-21l42 113h98z" />
    <glyph glyph-name="Acircumflex" unicode="&#xc2;" horiz-adv-x="689" 
d="M398 237l-92 254l-92 -254h184zM403 225h-194l-31 -88q-12 -33 -12 -57q0 -37 28 -53t79 -16v-11h-253v11q69 0 107 52q21 29 54 120l169 470h21l215 -586q15 -41 30 -48.5t90 -7.5v-11h-368v11q75 0 103 5.5t28 22.5l-2 10zM244 716l98 78l94 -65l2 -48l-104 65l-91 -65
z" />
    <glyph glyph-name="Atilde" unicode="&#xc3;" horiz-adv-x="689" 
d="M398 237l-92 254l-92 -254h184zM403 225h-194l-31 -88q-12 -33 -12 -57q0 -37 28 -53t79 -16v-11h-253v11q69 0 107 52q21 29 54 120l169 470h21l215 -586q15 -41 30 -48.5t90 -7.5v-11h-368v11q75 0 103 5.5t28 22.5l-2 10zM213 694q43 61 66 80.5t48 19.5t59.5 -15
t56.5 -24q5 -2 10 -3t10 -1q18 0 37 21q10 11 20 23l11 -5q-45 -63 -65 -81t-46 -18q-16 0 -49 15q-46 21 -68 28q-11 3 -19 3q-19 0 -33 -15q-17 -22 -26 -33z" />
    <glyph glyph-name="Adieresis" unicode="&#xc4;" horiz-adv-x="689" 
d="M398 237l-92 254l-92 -254h184zM403 225h-194l-31 -88q-12 -33 -12 -57q0 -37 28 -53t79 -16v-11h-253v11q69 0 107 52q21 29 54 120l169 470h21l215 -586q15 -41 30 -48.5t90 -7.5v-11h-368v11q75 0 103 5.5t28 22.5l-2 10zM250 794q21 0 36 -15t15 -36t-15 -36t-36 -15
t-36 15t-15 36t15 36t36 15zM425 794q21 0 36 -15t15 -36t-15 -36t-36 -15t-36 15t-15 36t15 36t36 15z" />
    <glyph glyph-name="Aring" unicode="&#xc5;" horiz-adv-x="689" 
d="M398 237l-92 254l-92 -254h184zM403 225h-194l-31 -88q-12 -33 -12 -57q0 -37 28 -53t79 -16v-11h-253v11q69 0 107 52q21 29 54 120l169 470h21l215 -586q15 -41 30 -48.5t90 -7.5v-11h-368v11q75 0 103 5.5t28 22.5l-2 10zM359 800q29 0 49.5 -20.5t20.5 -49.5
t-20.5 -49.5t-49.5 -20.5t-49.5 20.5t-20.5 49.5t20.5 49.5t49.5 20.5zM359 777q-19 0 -33 -14t-14 -33t14 -33t33 -14t33 14t14 33t-14 33t-33 14z" />
    <glyph glyph-name="AE" unicode="&#xc6;" horiz-adv-x="997" 
d="M357 630l-143 -393h191v342q0 28 -4 36q-2 4 -12 8zM343 632q-30 3 -72 3v10h617v-250h-12q0 77 -39 147q-52 93 -147 93q-38 0 -76.5 -0.5t-69.5 -9.5q-9 -4 -12.5 -10.5t-3.5 -35.5v-233q105 0 130 21q37 32 52 172h11v-395h-11q-14 137 -51 169q-26 22 -131 22v-267
q0 -28 3 -35t19.5 -12.5t37.5 -6.5t75 -1q114 0 172.5 67.5t72.5 216.5h12v-297h-615v10q26 0 47 3t34 8t15 9q4 8 4 37v158h-196l-31 -88q-12 -33 -12 -57q0 -38 28 -54t79 -16v-10h-253v10q69 0 107 53q22 30 54 120z" />
    <glyph glyph-name="Ccedilla" unicode="&#xc7;" horiz-adv-x="547" 
d="M540 268q0 -145 -55.5 -211t-160.5 -66q-119 0 -201 72q-98 86 -98 247q0 157 99 257q85 86 182 86q47 0 82 -17q45 -22 82 -72l51 94h4v-290l-9 5q0 129 -71 207q-59 65 -124 65q-87 0 -125 -80.5t-38 -242.5q0 -159 41 -240.5t125 -81.5q95 0 146 56q61 66 61 212h9z
M291 0l-15 -25q26 0 40 -19q13 -19 8 -39q-5 -22 -21.5 -30t-40.5 -8q-25 0 -36 11v11q14 -10 30 -10q12 0 19 4.5t9 16.5q2 15 -3 25q-6 10 -17 10q-19 0 -26 -8l36 61h17z" />
    <glyph glyph-name="Egrave" unicode="&#xc8;" horiz-adv-x="694" 
d="M278 335v-267q0 -28 3 -35t19 -12.5t37 -6.5t75 -1q114 0 172.5 67.5t73.5 216.5h12v-297h-650v11q89 0 118 11q10 4 13.5 10.5t3.5 34.5v512q0 29 -4 36q-2 4 -13 8t-45 8t-73 4v10h617v-250h-12q0 77 -39 147q-52 93 -147 93q-38 0 -76.5 -0.5t-68.5 -9.5
q-9 -4 -12.5 -10.5t-3.5 -35.5v-233q104 0 129 21q38 32 53 172h11v-395h-11q-15 137 -52 169q-26 22 -130 22zM391 681l-119 113h98l42 -113h-21z" />
    <glyph glyph-name="Eacute" unicode="&#xc9;" horiz-adv-x="694" 
d="M278 335v-267q0 -28 3 -35t19 -12.5t37 -6.5t75 -1q114 0 172.5 67.5t73.5 216.5h12v-297h-650v11q89 0 118 11q10 4 13.5 10.5t3.5 34.5v512q0 29 -4 36q-2 4 -13 8t-45 8t-73 4v10h617v-250h-12q0 77 -39 147q-52 93 -147 93q-38 0 -76.5 -0.5t-68.5 -9.5
q-9 -4 -12.5 -10.5t-3.5 -35.5v-233q104 0 129 21q38 32 53 172h11v-395h-11q-15 137 -52 169q-26 22 -130 22zM323 681h-21l42 113h98z" />
    <glyph glyph-name="Ecircumflex" unicode="&#xca;" horiz-adv-x="694" 
d="M278 335v-267q0 -28 3 -35t19 -12.5t37 -6.5t75 -1q114 0 172.5 67.5t73.5 216.5h12v-297h-650v11q89 0 118 11q10 4 13.5 10.5t3.5 34.5v512q0 29 -4 36q-2 4 -13 8t-45 8t-73 4v10h617v-250h-12q0 77 -39 147q-52 93 -147 93q-38 0 -76.5 -0.5t-68.5 -9.5
q-9 -4 -12.5 -10.5t-3.5 -35.5v-233q104 0 129 21q38 32 53 172h11v-395h-11q-15 137 -52 169q-26 22 -130 22zM227 716l98 78l94 -65l2 -48l-104 65l-91 -65z" />
    <glyph glyph-name="Edieresis" unicode="&#xcb;" horiz-adv-x="694" 
d="M278 335v-267q0 -28 3 -35t19 -12.5t37 -6.5t75 -1q114 0 172.5 67.5t73.5 216.5h12v-297h-650v11q89 0 118 11q10 4 13.5 10.5t3.5 34.5v512q0 29 -4 36q-2 4 -13 8t-45 8t-73 4v10h617v-250h-12q0 77 -39 147q-52 93 -147 93q-38 0 -76.5 -0.5t-68.5 -9.5
q-9 -4 -12.5 -10.5t-3.5 -35.5v-233q104 0 129 21q38 32 53 172h11v-395h-11q-15 137 -52 169q-26 22 -130 22zM253 794q21 0 36 -15t15 -36t-15 -36t-36 -15t-36 15t-15 36t15 36t36 15zM428 794q21 0 36 -15t15 -36t-15 -36t-36 -15t-36 15t-15 36t15 36t36 15z" />
    <glyph glyph-name="Igrave" unicode="&#xcc;" horiz-adv-x="415" 
d="M279 581v-514q0 -29 4 -37q2 -4 12 -8q29 -11 119 -11v-11h-394v11q43 0 74.5 3t43 7.5t15 11t3.5 34.5v514q0 28 -4 35q-2 4 -13 8q-29 11 -119 11v10h395v-10q-43 0 -74.5 -3t-44.5 -8l-10 -4q-7 -6 -7 -39zM265 681l-119 113h98l42 -113h-21z" />
    <glyph glyph-name="Iacute" unicode="&#xcd;" horiz-adv-x="415" 
d="M279 581v-514q0 -29 4 -37q2 -4 12 -8q29 -11 119 -11v-11h-394v11q43 0 74.5 3t43 7.5t15 11t3.5 34.5v514q0 28 -4 35q-2 4 -13 8q-29 11 -119 11v10h395v-10q-43 0 -74.5 -3t-44.5 -8l-10 -4q-7 -6 -7 -39zM167 681h-21l42 113h98z" />
    <glyph glyph-name="Icircumflex" unicode="&#xce;" horiz-adv-x="415" 
d="M279 581v-514q0 -29 4 -37q2 -4 12 -8q29 -11 119 -11v-11h-394v11q43 0 74.5 3t43 7.5t15 11t3.5 34.5v514q0 28 -4 35q-2 4 -13 8q-29 11 -119 11v10h395v-10q-43 0 -74.5 -3t-44.5 -8l-10 -4q-7 -6 -7 -39zM121 716l98 78l94 -65l2 -48l-104 65l-91 -65z" />
    <glyph glyph-name="Idieresis" unicode="&#xcf;" horiz-adv-x="415" 
d="M279 581v-514q0 -29 4 -37q2 -4 12 -8q29 -11 119 -11v-11h-394v11q43 0 74.5 3t43 7.5t15 11t3.5 34.5v514q0 28 -4 35q-2 4 -13 8q-29 11 -119 11v10h395v-10q-43 0 -74.5 -3t-44.5 -8l-10 -4q-7 -6 -7 -39zM127 794q21 0 36 -15t15 -36t-15 -36t-36 -15t-36 15t-15 36
t15 36t36 15zM302 794q21 0 36 -15t15 -36t-15 -36t-36 -15t-36 15t-15 36t15 36t36 15z" />
    <glyph glyph-name="Eth" unicode="&#xd0;" horiz-adv-x="736" 
d="M159 372h-116v33h116v174q0 28 -4 36q-2 4 -13 8q-32 12 -122 12v10h390q113 0 204 -83q105 -95 105 -243q0 -146 -93 -235q-88 -84 -217 -84h-389v11q45 0 77 3t44 7.5t14 8.5q4 7 4 37v305zM282 372v-305q0 -29 3.5 -38t13.5 -13t43 -4.5t67 -0.5q95 0 138.5 77
t43.5 231q0 146 -44 228q-47 88 -138 88q-48 0 -73.5 -1.5t-36 -5.5t-14 -11.5t-3.5 -37.5v-174h170v-33h-170z" />
    <glyph glyph-name="Ntilde" unicode="&#xd1;" horiz-adv-x="695" 
d="M592 198v278q0 91 -31 125t-112 34v10h283v-10q-71 0 -99 -34t-28 -125v-480h-23l-399 528l-11 13q-3 0 -3 -18v-326q0 -110 30 -146t112 -36v-11h-291v11q78 0 107 32t29 126v340q0 56 -30 88q-36 38 -106 38v10h206l347 -450q13 -17 16 -17t3 20zM256 694
q43 61 66 80.5t48 19.5t59.5 -15t56.5 -24q5 -2 10 -3t10 -1q18 0 37 21q10 11 20 23l11 -5q-45 -63 -65 -81t-46 -18q-16 0 -49 15q-46 21 -68 28q-11 3 -19 3q-19 0 -33 -15q-17 -22 -26 -33z" />
    <glyph glyph-name="Ograve" unicode="&#xd2;" horiz-adv-x="634" 
d="M629 323q0 -147 -99 -244q-90 -88 -203 -88q-115 0 -203 84q-99 95 -99 248q0 147 99 243q90 87 203 87q115 0 203 -83q99 -94 99 -247zM497 323q0 158 -42.5 240t-127.5 82q-84 0 -126.5 -82t-42.5 -240q0 -156 42.5 -239.5t126.5 -83.5q83 0 126.5 83.5t43.5 239.5z
M368 681l-119 113h98l42 -113h-21z" />
    <glyph glyph-name="Oacute" unicode="&#xd3;" horiz-adv-x="634" 
d="M629 323q0 -147 -99 -244q-90 -88 -203 -88q-115 0 -203 84q-99 95 -99 248q0 147 99 243q90 87 203 87q115 0 203 -83q99 -94 99 -247zM497 323q0 158 -42.5 240t-127.5 82q-84 0 -126.5 -82t-42.5 -240q0 -156 42.5 -239.5t126.5 -83.5q83 0 126.5 83.5t43.5 239.5z
M270 681h-21l42 113h98z" />
    <glyph glyph-name="Ocircumflex" unicode="&#xd4;" horiz-adv-x="634" 
d="M629 323q0 -147 -99 -244q-90 -88 -203 -88q-115 0 -203 84q-99 95 -99 248q0 147 99 243q90 87 203 87q115 0 203 -83q99 -94 99 -247zM497 323q0 158 -42.5 240t-127.5 82q-84 0 -126.5 -82t-42.5 -240q0 -156 42.5 -239.5t126.5 -83.5q83 0 126.5 83.5t43.5 239.5z
M223 716l98 78l94 -65l2 -48l-104 65l-91 -65z" />
    <glyph glyph-name="Otilde" unicode="&#xd5;" horiz-adv-x="634" 
d="M629 323q0 -147 -99 -244q-90 -88 -203 -88q-115 0 -203 84q-99 95 -99 248q0 147 99 243q90 87 203 87q115 0 203 -83q99 -94 99 -247zM497 323q0 158 -42.5 240t-127.5 82q-84 0 -126.5 -82t-42.5 -240q0 -156 42.5 -239.5t126.5 -83.5q83 0 126.5 83.5t43.5 239.5z
M202 694q43 61 66 80.5t48 19.5t59.5 -15t56.5 -24q5 -2 10 -3t10 -1q18 0 37 21q10 11 20 23l11 -5q-45 -63 -65 -81t-46 -18q-16 0 -49 15q-46 21 -68 28q-11 3 -19 3q-19 0 -33 -15q-17 -22 -26 -33z" />
    <glyph glyph-name="Odieresis" unicode="&#xd6;" horiz-adv-x="634" 
d="M629 323q0 -147 -99 -244q-90 -88 -203 -88q-115 0 -203 84q-99 95 -99 248q0 147 99 243q90 87 203 87q115 0 203 -83q99 -94 99 -247zM497 323q0 158 -42.5 240t-127.5 82q-84 0 -126.5 -82t-42.5 -240q0 -156 42.5 -239.5t126.5 -83.5q83 0 126.5 83.5t43.5 239.5z
M250 794q21 0 36 -15t15 -36t-15 -36t-36 -15t-36 15t-15 36t15 36t36 15zM425 794q21 0 36 -15t15 -36t-15 -36t-36 -15t-36 15t-15 36t15 36t36 15z" />
    <glyph glyph-name="multiply" unicode="&#xd7;" horiz-adv-x="329" 
d="M164 151l-127 -127l-17 17l127 127l-127 127l17 17l127 -127l127 127l17 -17l-127 -127l127 -127l-17 -17z" />
    <glyph glyph-name="Oslash" unicode="&#xd8;" horiz-adv-x="634" 
d="M544 555q41 -44 63 -100.5t22 -131.5q0 -147 -99 -244q-90 -88 -203 -88q-52 0 -105.5 21.5t-95.5 61.5l-73 -83h-28l86 98q-40 44 -63 102.5t-23 131.5q0 147 99 243q90 87 203 87q51 0 105.5 -21.5t96.5 -61.5l72 83h28zM482 484l-302 -347q38 -137 147 -137
q83 0 126.5 83.5t43.5 239.5q0 93 -15 161zM475 509q-19 67 -56 101.5t-92 34.5q-84 0 -126.5 -82t-42.5 -240q0 -93 15 -162z" />
    <glyph glyph-name="Ugrave" unicode="&#xd9;" horiz-adv-x="704" 
d="M603 192q0 -108 -79 -163q-55 -38 -115 -38q-113 0 -189 47q-84 52 -84 144v397q0 28 -4 36q-2 4 -12 8q-32 12 -110 12v10h386v-10q-46 0 -74.5 -3t-41.5 -8t-15 -9q-5 -9 -5 -36v-377q0 -100 30 -143q36 -52 130 -52q52 0 101 37q69 52 69 148v261q0 103 -32 142.5
t-105 39.5v10h268v-10q-75 0 -100 -42q-18 -30 -18 -101v-300zM421 681l-119 113h98l42 -113h-21z" />
    <glyph glyph-name="Uacute" unicode="&#xda;" horiz-adv-x="704" 
d="M603 192q0 -108 -79 -163q-55 -38 -115 -38q-113 0 -189 47q-84 52 -84 144v397q0 28 -4 36q-2 4 -12 8q-32 12 -110 12v10h386v-10q-46 0 -74.5 -3t-41.5 -8t-15 -9q-5 -9 -5 -36v-377q0 -100 30 -143q36 -52 130 -52q52 0 101 37q69 52 69 148v261q0 103 -32 142.5
t-105 39.5v10h268v-10q-75 0 -100 -42q-18 -30 -18 -101v-300zM323 681h-21l42 113h98z" />
    <glyph glyph-name="Ucircumflex" unicode="&#xdb;" horiz-adv-x="704" 
d="M603 192q0 -108 -79 -163q-55 -38 -115 -38q-113 0 -189 47q-84 52 -84 144v397q0 28 -4 36q-2 4 -12 8q-32 12 -110 12v10h386v-10q-46 0 -74.5 -3t-41.5 -8t-15 -9q-5 -9 -5 -36v-377q0 -100 30 -143q36 -52 130 -52q52 0 101 37q69 52 69 148v261q0 103 -32 142.5
t-105 39.5v10h268v-10q-75 0 -100 -42q-18 -30 -18 -101v-300zM277 716l98 78l94 -65l2 -48l-104 65l-91 -65z" />
    <glyph glyph-name="Udieresis" unicode="&#xdc;" horiz-adv-x="704" 
d="M603 192q0 -108 -79 -163q-55 -38 -115 -38q-113 0 -189 47q-84 52 -84 144v397q0 28 -4 36q-2 4 -12 8q-32 12 -110 12v10h386v-10q-46 0 -74.5 -3t-41.5 -8t-15 -9q-5 -9 -5 -36v-377q0 -100 30 -143q36 -52 130 -52q52 0 101 37q69 52 69 148v261q0 103 -32 142.5
t-105 39.5v10h268v-10q-75 0 -100 -42q-18 -30 -18 -101v-300zM313 794q21 0 36 -15t15 -36t-15 -36t-36 -15t-36 15t-15 36t15 36t36 15zM488 794q21 0 36 -15t15 -36t-15 -36t-36 -15t-36 15t-15 36t15 36t36 15z" />
    <glyph glyph-name="Yacute" unicode="&#xdd;" horiz-adv-x="765" 
d="M333 273l-180 306q-21 37 -44 46.5t-99 9.5v10h394v-10q-62 0 -90.5 -8t-28.5 -28q0 -11 9 -26l160 -268l109 184q22 39 22 69q0 77 -110 77v10h268v-10q-65 0 -107 -51q-43 -71 -67 -110l-112 -189v-218q0 -29 4 -37q2 -4 14 -8.5t46 -7.5t91 -3v-11h-434v11q57 0 91 3
t46 7.5t14 8.5q4 8 4 37v206zM355 681h-21l42 113h98z" />
    <glyph glyph-name="Thorn" unicode="&#xde;" horiz-adv-x="678" 
d="M408 503q120 0 186.5 -53t66.5 -137q0 -57 -50 -104q-62 -59 -168 -59h-152v-83q0 -29 4 -37q2 -4 14 -8.5t47 -7.5t96 -3v-11h-432v11q51 0 84.5 3t45.5 7.5t14 8.5q4 8 4 37v514q0 26 -4 34q-2 4 -12 8q-31 11 -132 11v11h432v-11q-61 0 -96 -3t-47 -7.5t-14 -8.5
q-4 -8 -4 -37v-75h117zM291 493v-333h101q83 0 116 43q28 37 28 118q0 85 -37 129t-114 44z" />
    <glyph glyph-name="germandbls" unicode="&#xdf;" horiz-adv-x="646" 
d="M144 452q0 107 73 162q60 45 150 45q79 0 135 -43t56 -109q0 -51 -82.5 -94.5t-82.5 -69.5q0 -12 76 -36q48 -15 78 -30q39 -20 56 -45q22 -32 22 -86q0 -78 -53 -121q-42 -34 -96 -34q-46 0 -83 33q-42 37 -42 92q0 31 16.5 45t38.5 14q15 0 24 -7q22 -16 22 -46
q0 -16 -10 -30q-4 -5 -11 -8.5t-17 -3.5q-7 0 -14.5 3.5t-14.5 10.5q-9 -22 16 -55q30 -39 83 -39q54 0 82 37q23 30 23 75q0 31 -64 60l-120 48q-65 29 -65 59q0 27 59 113t59 148q0 47 -24 76.5t-64 29.5q-46 0 -71 -24q-36 -35 -36 -124l-1 -431q0 -29 4 -37
q2 -4 13.5 -8.5t41 -7.5t64.5 -3v-11h-366v11q36 0 65.5 3t41 7.5t15 11t3.5 34.5v385z" />
    <glyph glyph-name="agrave" unicode="&#xe0;" horiz-adv-x="463" 
d="M278 110v133q-12 -16 -35.5 -19.5t-45.5 -6.5q-29 -7 -46 -32q-20 -30 -20 -84q0 -58 11.5 -78.5t36.5 -20.5q38 0 68.5 31.5t30.5 76.5zM281 290v58q0 40 -13 54t-56 14q-35 0 -61 -13t-34 -35q4 1 10 1q19 0 31 -15t12 -34q0 -22 -15 -36t-35 -14q-13 0 -23 7
q-29 19 -29 48q0 14 6 32q14 39 70 57q40 13 81 13q74 0 112 -28q34 -25 34 -63v-221q0 -60 3 -74q7 -34 36 -34q26 0 35 27t9 78q0 14 -0.5 28t-0.5 29v9h11v-44q0 -21 1 -40q0 -58 -14 -78q-18 -25 -73 -25q-43 0 -64 15q-25 18 -33 61q-21 -49 -63 -66q-25 -10 -67 -10
t-73 20q-43 27 -43 82q0 54 42 91q42 36 102 41t81 16t21 49zM284 532l-119 113h98l42 -113h-21z" />
    <glyph glyph-name="aacute" unicode="&#xe1;" horiz-adv-x="463" 
d="M278 110v133q-12 -16 -35.5 -19.5t-45.5 -6.5q-29 -7 -46 -32q-20 -30 -20 -84q0 -58 11.5 -78.5t36.5 -20.5q38 0 68.5 31.5t30.5 76.5zM281 290v58q0 40 -13 54t-56 14q-35 0 -61 -13t-34 -35q4 1 10 1q19 0 31 -15t12 -34q0 -22 -15 -36t-35 -14q-13 0 -23 7
q-29 19 -29 48q0 14 6 32q14 39 70 57q40 13 81 13q74 0 112 -28q34 -25 34 -63v-221q0 -60 3 -74q7 -34 36 -34q26 0 35 27t9 78q0 14 -0.5 28t-0.5 29v9h11v-44q0 -21 1 -40q0 -58 -14 -78q-18 -25 -73 -25q-43 0 -64 15q-25 18 -33 61q-21 -49 -63 -66q-25 -10 -67 -10
t-73 20q-43 27 -43 82q0 54 42 91q42 36 102 41t81 16t21 49zM186 532h-21l42 113h98z" />
    <glyph glyph-name="acircumflex" unicode="&#xe2;" horiz-adv-x="463" 
d="M278 110v133q-12 -16 -35.5 -19.5t-45.5 -6.5q-29 -7 -46 -32q-20 -30 -20 -84q0 -58 11.5 -78.5t36.5 -20.5q38 0 68.5 31.5t30.5 76.5zM281 290v58q0 40 -13 54t-56 14q-35 0 -61 -13t-34 -35q4 1 10 1q19 0 31 -15t12 -34q0 -22 -15 -36t-35 -14q-13 0 -23 7
q-29 19 -29 48q0 14 6 32q14 39 70 57q40 13 81 13q74 0 112 -28q34 -25 34 -63v-221q0 -60 3 -74q7 -34 36 -34q26 0 35 27t9 78q0 14 -0.5 28t-0.5 29v9h11v-44q0 -21 1 -40q0 -58 -14 -78q-18 -25 -73 -25q-43 0 -64 15q-25 18 -33 61q-21 -49 -63 -66q-25 -10 -67 -10
t-73 20q-43 27 -43 82q0 54 42 91q42 36 102 41t81 16t21 49zM141 567l98 78l94 -65l2 -48l-104 65l-91 -65z" />
    <glyph glyph-name="atilde" unicode="&#xe3;" horiz-adv-x="463" 
d="M278 110v133q-12 -16 -35.5 -19.5t-45.5 -6.5q-29 -7 -46 -32q-20 -30 -20 -84q0 -58 11.5 -78.5t36.5 -20.5q38 0 68.5 31.5t30.5 76.5zM281 290v58q0 40 -13 54t-56 14q-35 0 -61 -13t-34 -35q4 1 10 1q19 0 31 -15t12 -34q0 -22 -15 -36t-35 -14q-13 0 -23 7
q-29 19 -29 48q0 14 6 32q14 39 70 57q40 13 81 13q74 0 112 -28q34 -25 34 -63v-221q0 -60 3 -74q7 -34 36 -34q26 0 35 27t9 78q0 14 -0.5 28t-0.5 29v9h11v-44q0 -21 1 -40q0 -58 -14 -78q-18 -25 -73 -25q-43 0 -64 15q-25 18 -33 61q-21 -49 -63 -66q-25 -10 -67 -10
t-73 20q-43 27 -43 82q0 54 42 91q42 36 102 41t81 16t21 49zM18 545q43 61 66 80.5t48 19.5t59.5 -15t56.5 -24q5 -2 10 -3t10 -1q18 0 37 21q10 11 20 23l11 -5q-45 -63 -65 -81t-46 -18q-16 0 -49 15q-46 21 -68 28q-11 3 -19 3q-19 0 -33 -15q-17 -22 -26 -33z" />
    <glyph glyph-name="adieresis" unicode="&#xe4;" horiz-adv-x="463" 
d="M278 110v133q-12 -16 -35.5 -19.5t-45.5 -6.5q-29 -7 -46 -32q-20 -30 -20 -84q0 -58 11.5 -78.5t36.5 -20.5q38 0 68.5 31.5t30.5 76.5zM281 290v58q0 40 -13 54t-56 14q-35 0 -61 -13t-34 -35q4 1 10 1q19 0 31 -15t12 -34q0 -22 -15 -36t-35 -14q-13 0 -23 7
q-29 19 -29 48q0 14 6 32q14 39 70 57q40 13 81 13q74 0 112 -28q34 -25 34 -63v-221q0 -60 3 -74q7 -34 36 -34q26 0 35 27t9 78q0 14 -0.5 28t-0.5 29v9h11v-44q0 -21 1 -40q0 -58 -14 -78q-18 -25 -73 -25q-43 0 -64 15q-25 18 -33 61q-21 -49 -63 -66q-25 -10 -67 -10
t-73 20q-43 27 -43 82q0 54 42 91q42 36 102 41t81 16t21 49zM146 645q21 0 36 -15t15 -36t-15 -36t-36 -15t-36 15t-15 36t15 36t36 15zM321 645q21 0 36 -15t15 -36t-15 -36t-36 -15t-36 15t-15 36t15 36t36 15z" />
    <glyph glyph-name="aring" unicode="&#xe5;" horiz-adv-x="463" 
d="M278 110v133q-12 -16 -35.5 -19.5t-45.5 -6.5q-29 -7 -46 -32q-20 -30 -20 -84q0 -58 11.5 -78.5t36.5 -20.5q38 0 68.5 31.5t30.5 76.5zM281 290v58q0 40 -13 54t-56 14q-35 0 -61 -13t-34 -35q4 1 10 1q19 0 31 -15t12 -34q0 -22 -15 -36t-35 -14q-13 0 -23 7
q-29 19 -29 48q0 14 6 32q14 39 70 57q40 13 81 13q74 0 112 -28q34 -25 34 -63v-221q0 -60 3 -74q7 -34 36 -34q26 0 35 27t9 78q0 14 -0.5 28t-0.5 29v9h11v-44q0 -21 1 -40q0 -58 -14 -78q-18 -25 -73 -25q-43 0 -64 15q-25 18 -33 61q-21 -49 -63 -66q-25 -10 -67 -10
t-73 20q-43 27 -43 82q0 54 42 91q42 36 102 41t81 16t21 49zM235 651q29 0 49.5 -20.5t20.5 -49.5t-20.5 -49.5t-49.5 -20.5t-49.5 20.5t-20.5 49.5t20.5 49.5t49.5 20.5zM235 628q-19 0 -33 -14t-14 -33t14 -33t33 -14t33 14t14 33t-14 33t-33 14z" />
    <glyph glyph-name="ae" unicode="&#xe6;" horiz-adv-x="622" 
d="M348 385q19 19 49 30.5t56 11.5q63 0 103 -38q58 -55 58 -183h-232q0 -111 18.5 -157t68.5 -46q48 0 88 37q50 46 50 122h9q0 -74 -46.5 -122.5t-119.5 -48.5q-52 0 -89 24.5t-47 60.5q-16 -59 -67 -76q-26 -9 -96 -9q-42 0 -73 20q-43 27 -43 82t43 93q42 38 90 38
q69 0 92 14.5t23 43.5v66q0 40 -14 54t-57 14q-35 0 -61 -13t-34 -35q4 1 10 1q19 0 31 -15t12 -34q0 -22 -15 -36t-35 -14q-13 0 -23 7q-29 19 -29 48q0 14 6 32q14 39 70 57q40 13 81 13q46 0 76 -11.5t47 -30.5zM530 219q0 101 -13 149t-51 48q-53 0 -68.5 -44.5
t-15.5 -152.5h148zM281 91v155q-16 -18 -39 -24q-29 -4 -51.5 -7t-39.5 -29q-20 -30 -20 -85q0 -58 11.5 -78.5t36.5 -20.5q52 0 77 21t25 68z" />
    <glyph glyph-name="ccedilla" unicode="&#xe7;" horiz-adv-x="397" 
d="M317 352q-4 32 -28 48.5t-60 16.5q-56 0 -78 -50t-22 -158q0 -100 28 -151.5t75 -51.5q56 0 95 37q49 47 49 138h9q0 -88 -46 -139t-126 -51q-65 0 -121 52q-67 62 -67 158q0 103 68 169q59 57 123 57q43 0 80 -15q56 -23 69 -71q5 -18 5 -31q0 -32 -30 -49
q-11 -7 -26 -7q-18 0 -32.5 13.5t-14.5 36.5q0 21 13.5 34.5t36.5 13.5zM214 0l-15 -25q26 0 40 -19q13 -19 8 -39q-5 -22 -21.5 -30t-40.5 -8q-25 0 -36 11v11q14 -10 30 -10q12 0 19 4.5t9 16.5q2 15 -3 25q-6 10 -17 10q-19 0 -26 -8l36 61h17z" />
    <glyph glyph-name="egrave" unicode="&#xe8;" horiz-adv-x="399" 
d="M128 206q0 -107 25.5 -155t77.5 -48q55 0 97 37q51 45 51 122h9q0 -75 -48 -123t-128 -48q-67 0 -122 51q-65 60 -65 157q0 105 64 171q56 57 126 57q65 0 108 -38q63 -56 63 -183h-258zM302 219q0 96 -17.5 146.5t-56.5 50.5q-55 0 -77.5 -48t-22.5 -149h174zM250 532
l-119 113h98l42 -113h-21z" />
    <glyph glyph-name="eacute" unicode="&#xe9;" horiz-adv-x="399" 
d="M128 206q0 -107 25.5 -155t77.5 -48q55 0 97 37q51 45 51 122h9q0 -75 -48 -123t-128 -48q-67 0 -122 51q-65 60 -65 157q0 105 64 171q56 57 126 57q65 0 108 -38q63 -56 63 -183h-258zM302 219q0 96 -17.5 146.5t-56.5 50.5q-55 0 -77.5 -48t-22.5 -149h174zM152 532
h-21l42 113h98z" />
    <glyph glyph-name="ecircumflex" unicode="&#xea;" horiz-adv-x="399" 
d="M128 206q0 -107 25.5 -155t77.5 -48q55 0 97 37q51 45 51 122h9q0 -75 -48 -123t-128 -48q-67 0 -122 51q-65 60 -65 157q0 105 64 171q56 57 126 57q65 0 108 -38q63 -56 63 -183h-258zM302 219q0 96 -17.5 146.5t-56.5 50.5q-55 0 -77.5 -48t-22.5 -149h174zM137 567
l98 78l94 -65l2 -48l-104 65l-91 -65z" />
    <glyph glyph-name="edieresis" unicode="&#xeb;" horiz-adv-x="399" 
d="M128 206q0 -107 25.5 -155t77.5 -48q55 0 97 37q51 45 51 122h9q0 -75 -48 -123t-128 -48q-67 0 -122 51q-65 60 -65 157q0 105 64 171q56 57 126 57q65 0 108 -38q63 -56 63 -183h-258zM302 219q0 96 -17.5 146.5t-56.5 50.5q-55 0 -77.5 -48t-22.5 -149h174zM112 645
q21 0 36 -15t15 -36t-15 -36t-36 -15t-36 15t-15 36t15 36t36 15zM287 645q21 0 36 -15t15 -36t-15 -36t-36 -15t-36 15t-15 36t15 36t36 15z" />
    <glyph glyph-name="igrave" unicode="&#xec;" horiz-adv-x="320" 
d="M213 426v-377q0 -20 3 -26q2 -3 9 -6q21 -7 87 -7v-10h-292v10q29 0 52.5 2t40.5 8q6 5 6 29v310q0 19 -4 24q-7 10 -13 12q-18 5 -82 5v10zM214 532l-119 113h98l42 -113h-21z" />
    <glyph glyph-name="iacute" unicode="&#xed;" horiz-adv-x="320" 
d="M213 426v-377q0 -20 3 -26q2 -3 9 -6q21 -7 87 -7v-10h-292v10q29 0 52.5 2t40.5 8q6 5 6 29v310q0 19 -4 24q-7 10 -13 12q-18 5 -82 5v10zM116 532h-21l42 113h98z" />
    <glyph glyph-name="icircumflex" unicode="&#xee;" horiz-adv-x="320" 
d="M213 426v-377q0 -20 3 -26q2 -3 9 -6q21 -7 87 -7v-10h-292v10q29 0 52.5 2t40.5 8q6 5 6 29v310q0 19 -4 24q-7 10 -13 12q-18 5 -82 5v10zM21 567l98 78l94 -65l2 -48l-104 65l-91 -65z" />
    <glyph glyph-name="idieresis" unicode="&#xef;" horiz-adv-x="320" 
d="M213 426v-377q0 -20 3 -26q2 -3 9 -6q21 -7 87 -7v-10h-292v10q29 0 52.5 2t40.5 8q6 5 6 29v310q0 19 -4 24q-7 10 -13 12q-18 5 -82 5v10zM76 645q21 0 36 -15t15 -36t-15 -36t-36 -15t-36 15t-15 36t15 36t36 15zM251 645q21 0 36 -15t15 -36t-15 -36t-36 -15t-36 15
t-15 36t15 36t36 15z" />
    <glyph glyph-name="eth" unicode="&#xf0;" horiz-adv-x="441" 
d="M212 397q-51 0 -70 -86q-10 -46 -10 -115q0 -74 9 -112q20 -84 79 -84q70 0 83 103q4 33 4 102q0 84 -17 130q-23 62 -78 62zM337 578q40 -49 61.5 -124t21.5 -154q0 -148 -45 -225q-49 -84 -149 -84q-96 0 -151 60t-55 164q0 91 47 146t117 55q53 0 81 -23
q23 -19 40 -63v48q0 23 1 46q0 40 -3 71.5t-11 59.5l-110 -55l-14 20l115 58q-32 67 -94 67q-46 0 -72 -20q-20 -15 -25 -35h-39q12 27 47.5 45t83.5 18q40 0 74 -14.5t62 -42.5l100 50l14 -20z" />
    <glyph glyph-name="ntilde" unicode="&#xf1;" horiz-adv-x="537" 
d="M202 245v-196q0 -20 3 -26q2 -3 9.5 -6t27 -5t34.5 -2v-10h-256v10q22 0 43.5 2t38.5 8q6 5 6 29v303q0 9 -0.5 18t-4.5 14l-6 10q-10 7 -76 7v10l181 17v-129q6 43 26 76q28 46 59 49.5t40 3.5q63 0 100 -38q31 -32 31 -76v-265q0 -20 3 -26q2 -3 10 -6t29 -5t40 -2v-10
h-256v10q16 0 37 2t37 8q6 5 6 29v253q0 48 -8 73q-13 41 -48 41q-46 0 -75 -57q-22 -43 -31 -114zM63 545q43 61 66 80.5t48 19.5t59.5 -15t56.5 -24q5 -2 10 -3t10 -1q18 0 37 21q10 11 20 23l11 -5q-45 -63 -65 -81t-46 -18q-16 0 -49 15q-46 21 -68 28q-11 3 -19 3
q-19 0 -33 -15q-17 -22 -26 -33z" />
    <glyph glyph-name="ograve" unicode="&#xf2;" horiz-adv-x="448" 
d="M433 210q0 -97 -67 -161q-61 -58 -137 -58q-78 0 -136 54q-68 63 -68 165q0 97 67 160q61 57 137 57q77 0 136 -54q68 -62 68 -163zM329 210q0 111 -19 156q-22 52 -81 52q-54 0 -77 -50t-23 -158q0 -110 20.5 -160t79.5 -50q54 0 77 51t23 159zM272 532l-119 113h98
l42 -113h-21z" />
    <glyph glyph-name="oacute" unicode="&#xf3;" horiz-adv-x="448" 
d="M433 210q0 -97 -67 -161q-61 -58 -137 -58q-78 0 -136 54q-68 63 -68 165q0 97 67 160q61 57 137 57q77 0 136 -54q68 -62 68 -163zM329 210q0 111 -19 156q-22 52 -81 52q-54 0 -77 -50t-23 -158q0 -110 20.5 -160t79.5 -50q54 0 77 51t23 159zM174 532h-21l42 113h98z
" />
    <glyph glyph-name="ocircumflex" unicode="&#xf4;" horiz-adv-x="448" 
d="M433 210q0 -97 -67 -161q-61 -58 -137 -58q-78 0 -136 54q-68 63 -68 165q0 97 67 160q61 57 137 57q77 0 136 -54q68 -62 68 -163zM329 210q0 111 -19 156q-22 52 -81 52q-54 0 -77 -50t-23 -158q0 -110 20.5 -160t79.5 -50q54 0 77 51t23 159zM121 567l98 78l94 -65
l2 -48l-104 65l-91 -65z" />
    <glyph glyph-name="otilde" unicode="&#xf5;" horiz-adv-x="448" 
d="M433 210q0 -97 -67 -161q-61 -58 -137 -58q-78 0 -136 54q-68 63 -68 165q0 97 67 160q61 57 137 57q77 0 136 -54q68 -62 68 -163zM329 210q0 111 -19 156q-22 52 -81 52q-54 0 -77 -50t-23 -158q0 -110 20.5 -160t79.5 -50q54 0 77 51t23 159zM100 545q43 61 66 80.5
t48 19.5t59.5 -15t56.5 -24q5 -2 10 -3t10 -1q18 0 37 21q10 11 20 23l11 -5q-45 -63 -65 -81t-46 -18q-16 0 -49 15q-46 21 -68 28q-11 3 -19 3q-19 0 -33 -15q-17 -22 -26 -33z" />
    <glyph glyph-name="odieresis" unicode="&#xf6;" horiz-adv-x="448" 
d="M433 210q0 -97 -67 -161q-61 -58 -137 -58q-78 0 -136 54q-68 63 -68 165q0 97 67 160q61 57 137 57q77 0 136 -54q68 -62 68 -163zM329 210q0 111 -19 156q-22 52 -81 52q-54 0 -77 -50t-23 -158q0 -110 20.5 -160t79.5 -50q54 0 77 51t23 159zM134 645q21 0 36 -15
t15 -36t-15 -36t-36 -15t-36 15t-15 36t15 36t36 15zM309 645q21 0 36 -15t15 -36t-15 -36t-36 -15t-36 15t-15 36t15 36t36 15z" />
    <glyph glyph-name="divide" unicode="&#xf7;" 
d="M383 179h-303v24h303v-24zM231 145q15 0 26 -11t11 -26t-11 -26t-26 -11t-26 11t-11 26t11 26t26 11zM231 237q-15 0 -26 11t-11 26t11 26t26 11t26 -11t11 -26t-11 -26t-26 -11z" />
    <glyph glyph-name="oslash" unicode="&#xf8;" horiz-adv-x="448" 
d="M320 330q-9 46 -30 67t-61 21q-54 0 -77 -50t-23 -158v-43q0 -18 4 -51zM376 362q27 -28 42 -66t15 -86q0 -97 -67 -161q-61 -58 -137 -58q-73 0 -132 51l-44 -51h-28l57 65q-27 28 -42 67t-15 87q0 97 67 160q61 57 137 57q35 0 68 -12.5t64 -37.5l43 50h28zM325 304
l-187 -215q9 -44 30.5 -66.5t60.5 -22.5q54 0 77 51t23 159v24q0 42 -4 70z" />
    <glyph glyph-name="ugrave" unicode="&#xf9;" horiz-adv-x="521" 
d="M338 364q0 23 -5.5 30.5t-18 9.5t-81.5 2v10l199 11v-339q0 -13 0.5 -26t4.5 -19l6 -10q10 -7 76 -7v-10l-181 -16v127q-6 -41 -30 -76q-31 -45 -76 -50q-6 -1 -12 -1h-12q-59 0 -92 37q-28 31 -28 75v261q0 18 -4.5 24.5t-13.5 7.5t-47 1h-23v10l182 11v-329
q0 -51 12.5 -69t36.5 -18q45 0 76 54t31 117v182zM328 532l-119 113h98l42 -113h-21z" />
    <glyph glyph-name="uacute" unicode="&#xfa;" horiz-adv-x="521" 
d="M338 364q0 23 -5.5 30.5t-18 9.5t-81.5 2v10l199 11v-339q0 -13 0.5 -26t4.5 -19l6 -10q10 -7 76 -7v-10l-181 -16v127q-6 -41 -30 -76q-31 -45 -76 -50q-6 -1 -12 -1h-12q-59 0 -92 37q-28 31 -28 75v261q0 18 -4.5 24.5t-13.5 7.5t-47 1h-23v10l182 11v-329
q0 -51 12.5 -69t36.5 -18q45 0 76 54t31 117v182zM230 532h-21l42 113h98z" />
    <glyph glyph-name="ucircumflex" unicode="&#xfb;" horiz-adv-x="521" 
d="M338 364q0 23 -5.5 30.5t-18 9.5t-81.5 2v10l199 11v-339q0 -13 0.5 -26t4.5 -19l6 -10q10 -7 76 -7v-10l-181 -16v127q-6 -41 -30 -76q-31 -45 -76 -50q-6 -1 -12 -1h-12q-59 0 -92 37q-28 31 -28 75v261q0 18 -4.5 24.5t-13.5 7.5t-47 1h-23v10l182 11v-329
q0 -51 12.5 -69t36.5 -18q45 0 76 54t31 117v182zM161 567l98 78l94 -65l2 -48l-104 65l-91 -65z" />
    <glyph glyph-name="udieresis" unicode="&#xfc;" horiz-adv-x="521" 
d="M338 364q0 23 -5.5 30.5t-18 9.5t-81.5 2v10l199 11v-339q0 -13 0.5 -26t4.5 -19l6 -10q10 -7 76 -7v-10l-181 -16v127q-6 -41 -30 -76q-31 -45 -76 -50q-6 -1 -12 -1h-12q-59 0 -92 37q-28 31 -28 75v261q0 18 -4.5 24.5t-13.5 7.5t-47 1h-23v10l182 11v-329
q0 -51 12.5 -69t36.5 -18q45 0 76 54t31 117v182zM190 645q21 0 36 -15t15 -36t-15 -36t-36 -15t-36 15t-15 36t15 36t36 15zM365 645q21 0 36 -15t15 -36t-15 -36t-36 -15t-36 15t-15 36t15 36t36 15z" />
    <glyph glyph-name="yacute" unicode="&#xfd;" horiz-adv-x="481" 
d="M218 -96q-21 -61 -39 -85q-21 -28 -54 -28q-42 0 -62 8.5t-25.5 29t-5.5 32.5q0 30 28 45q11 6 23 6q19 0 33.5 -14.5t14.5 -38.5q0 -43 -40 -48q7 -7 14.5 -8t15.5 -1q27 0 44 20.5t36 75.5l32 90l-144 391q-9 23 -11 27q-6 10 -35 10h-23v11h230v-11q-23 0 -46.5 -0.5
t-23.5 -12.5l6 -20l95 -257l67 196q12 35 12 54q0 40 -67 40v11h168v-11q-38 0 -59 -18.5t-47 -92.5zM193 532h-21l42 113h98z" />
    <glyph glyph-name="thorn" unicode="&#xfe;" horiz-adv-x="510" 
d="M218 206q0 -100 23 -152t63 -52q48 0 66.5 44.5t18.5 161.5q0 106 -11 148q-16 61 -66 61q-34 0 -61 -51q-33 -61 -33 -160zM213 284q6 52 28 90q31 53 82 53q72 0 119 -55q51 -60 51 -165q0 -72 -47 -138q-55 -78 -139 -78q-44 0 -70 47q-18 33 -24 76v-274q0 -20 3 -26
q2 -3 9 -6q21 -7 87 -7v-10h-292v10q29 0 52.5 2t40.5 8q6 5 6 29v741q0 20 -6 28t-12 10q-18 5 -80 5v10l192 17v-367z" />
    <glyph glyph-name="ydieresis" unicode="&#xff;" horiz-adv-x="450" 
d="M218 -96q-21 -61 -39 -85q-21 -28 -54 -28q-42 0 -62 8.5t-25.5 29t-5.5 32.5q0 30 28 45q11 6 23 6q19 0 33.5 -14.5t14.5 -38.5q0 -43 -40 -48q7 -7 14.5 -8t15.5 -1q27 0 44 20.5t36 75.5l32 90l-144 391q-9 23 -11 27q-6 10 -35 10h-23v11h230v-11q-23 0 -46.5 -0.5
t-23.5 -12.5l6 -20l95 -257l67 196q12 35 12 54q0 40 -67 40v11h168v-11q-38 0 -59 -18.5t-47 -92.5zM153 645q21 0 36 -15t15 -36t-15 -36t-36 -15t-36 15t-15 36t15 36t36 15zM328 645q21 0 36 -15t15 -36t-15 -36t-36 -15t-36 15t-15 36t15 36t36 15z" />
    <glyph glyph-name="dotlessi" unicode="&#x131;" horiz-adv-x="320" 
d="M213 426v-377q0 -20 3 -26q2 -3 9 -6q21 -7 87 -7v-10h-292v10q29 0 52.5 2t40.5 8q6 5 6 29v310q0 19 -4 24q-7 10 -13 12q-18 5 -82 5v10z" />
    <glyph glyph-name="OE" unicode="&#x152;" horiz-adv-x="914" 
d="M389 0q-33 -9 -67 -9q-115 0 -203 84q-99 95 -99 248q0 147 99 243q90 87 203 87q32 0 67 -8h503v-250h-12q0 77 -39 147q-52 93 -147 93q-38 0 -76.5 -0.5t-69.5 -9.5q-9 -4 -12.5 -10.5t-3.5 -35.5v-233q105 0 130 21q37 32 52 172h11v-395h-11q-14 137 -51 169
q-26 22 -131 22v-267q0 -28 3.5 -35.5t12.5 -10.5q23 -7 44 -8t75 -1q114 0 172.5 67.5t72.5 216.5h12v-297h-535zM322 644q-85 0 -127 -81.5t-42 -239.5q0 -156 42.5 -239.5t126.5 -83.5q35 0 48 3q26 6 34 25q4 9 4.5 20t0.5 19v511q0 26 -5 38q-8 18 -28.5 23t-53.5 5z
" />
    <glyph glyph-name="oe" unicode="&#x153;" horiz-adv-x="673" 
d="M363 66q-29 -35 -67 -55t-77 -20q-77 0 -134 54q-65 62 -65 165q0 97 65 160q59 57 134 57q39 0 79.5 -20.5t69.5 -55.5q57 76 133 76q65 0 108 -38q63 -56 63 -183h-258q0 -107 25.5 -155t77.5 -48q55 0 97 37q51 45 51 122h9q0 -75 -48 -123t-128 -48q-35 0 -69.5 19
t-65.5 56zM588 219q0 96 -17.5 146.5t-56.5 50.5q-55 0 -77.5 -48t-22.5 -149h174zM319 210q0 111 -19 156q-22 52 -81 52q-54 0 -77 -50t-23 -158q0 -110 20.5 -160t79.5 -50q54 0 77 51t23 159z" />
    <glyph glyph-name="Scaron" unicode="&#x160;" horiz-adv-x="500" 
d="M368 596q58 51 66 57v-218l-9 3q-14 88 -73 147.5t-134 59.5q-52 0 -90 -24q-47 -29 -47 -85q0 -54 51 -88q43 -29 138 -51q123 -30 161 -57q62 -45 62 -150q0 -99 -64 -153q-54 -46 -131 -46q-59 0 -105.5 19t-80.5 63q-60 -79 -63 -82v276l9 1q19 -86 43 -138
q20 -44 47 -73q53 -57 154 -57q47 0 86 31q45 36 45 90q0 66 -61 104q-42 26 -146.5 54.5t-145.5 58.5q-60 45 -60 131q0 77 54.5 130.5t129.5 53.5q64 0 105 -19q13 -6 59 -38zM156 759l-1 35l91 -65l104 65l-2 -48l-94 -65z" />
    <glyph glyph-name="scaron" unicode="&#x161;" horiz-adv-x="346" 
d="M262 396q39 29 41 31v-150l-9 2q-14 60 -50 98q-39 41 -86 41q-36 0 -59 -14q-31 -19 -31 -63q0 -36 34 -56q24 -14 96 -31t101 -40q41 -32 41 -102q0 -65 -44 -96q-35 -25 -88 -25q-44 0 -63 6q-28 9 -61 43q-40 -47 -42 -49v177h7q17 -62 28 -86q15 -33 32 -49
q23 -22 43.5 -27.5t61.5 -5.5q31 0 51 16q24 19 24 54q0 45 -32 67q-25 17 -88.5 30t-98.5 42q-42 35 -42 93q0 52 35.5 88.5t86.5 36.5q39 0 68 -13q38 -17 44 -18zM79 610l-1 35l91 -65l104 65l-2 -48l-94 -65z" />
    <glyph glyph-name="Ydieresis" unicode="&#x178;" horiz-adv-x="725" 
d="M333 273l-180 306q-21 37 -44 46.5t-99 9.5v10h394v-10q-62 0 -90.5 -8t-28.5 -28q0 -11 9 -26l160 -268l109 184q22 39 22 69q0 77 -110 77v10h268v-10q-65 0 -107 -51q-43 -71 -67 -110l-112 -189v-218q0 -29 4 -37q2 -4 14 -8.5t46 -7.5t91 -3v-11h-434v11q57 0 91 3
t46 7.5t14 8.5q4 8 4 37v206zM295 794q21 0 36 -15t15 -36t-15 -36t-36 -15t-36 15t-15 36t15 36t36 15zM470 794q21 0 36 -15t15 -36t-15 -36t-36 -15t-36 15t-15 36t15 36t36 15z" />
    <glyph glyph-name="florin" unicode="&#x192;" 
d="M251 -30q-9 -66 -63 -122t-114 -56q-36 0 -61 13.5t-31.5 33.5t-6.5 31q0 24 27 40q10 7 23 7q18 0 32.5 -13.5t14.5 -33.5q0 -39 -38 -44q5 -14 12 -20t22 -6q39 0 56.5 22.5t25.5 83.5l61 492h-94l2 18h94l7 59q8 67 61.5 122.5t114.5 55.5q37 0 61 -12.5t30.5 -31.5
t6.5 -33q0 -25 -26 -41q-10 -7 -24 -7q-18 0 -32 13t-14 35q0 20 8 30t29 13q-4 11 -7 15q-8 11 -26 11q-39 0 -56.5 -23t-24.5 -83l-15 -123h93l-2 -18h-93z" />
    <glyph glyph-name="circumflex" unicode="&#x2c6;" horiz-adv-x="225" 
d="M21 567l98 78l94 -65l2 -48l-104 65l-91 -65z" />
    <glyph glyph-name="caron" unicode="&#x2c7;" horiz-adv-x="225" 
d="M21 610l-1 35l91 -65l104 65l-2 -48l-94 -65z" />
    <glyph glyph-name="uni02C9" unicode="&#x2c9;" horiz-adv-x="231" 
d="M20 567h199v-35h-199v35z" />
    <glyph glyph-name="breve" unicode="&#x2d8;" horiz-adv-x="232" 
d="M205 636h10q0 -47 -25 -76t-72 -29q-49 0 -73.5 28t-24.5 77h10q0 -25 24.5 -39t63.5 -14q41 0 64 13.5t23 39.5z" />
    <glyph glyph-name="dotaccent" unicode="&#x2d9;" horiz-adv-x="140" 
d="M71 637q21 0 36 -15t15 -36t-15 -36t-36 -15t-36 15t-15 36t15 36t36 15z" />
    <glyph glyph-name="ring" unicode="&#x2da;" horiz-adv-x="175" 
d="M90 651q29 0 49.5 -20.5t20.5 -49.5t-20.5 -49.5t-49.5 -20.5t-49.5 20.5t-20.5 49.5t20.5 49.5t49.5 20.5zM90 628q-19 0 -33 -14t-14 -33t14 -33t33 -14t33 14t14 33t-14 33t-33 14z" />
    <glyph glyph-name="ogonek" unicode="&#x2db;" horiz-adv-x="185" 
d="M34 0h14q-1 -4 -1 -13q0 -25 15 -41t36 -16t38 7.5t26 18.5l8 -6q-27 -35 -47 -45q-14 -7 -45 -7q-25 0 -41.5 19.5t-16.5 44.5q0 23 14 38z" />
    <glyph glyph-name="tilde" unicode="&#x2dc;" horiz-adv-x="344" 
d="M20 545q43 61 66 80.5t48 19.5t59.5 -15t56.5 -24q5 -2 10 -3t10 -1q18 0 37 21q10 11 20 23l11 -5q-45 -63 -65 -81t-46 -18q-16 0 -49 15q-46 21 -68 28q-11 3 -19 3q-19 0 -33 -15q-17 -22 -26 -33z" />
    <glyph glyph-name="hungarumlaut" unicode="&#x2dd;" horiz-adv-x="320" 
d="M48 532h-21l42 113h98zM176 532h-21l42 113h98z" />
    <glyph glyph-name="pi" unicode="&#x3c0;" horiz-adv-x="533" 
d="M113 377q-39 0 -54 -7.5t-23 -41.5h-16q0 54 19.5 76.5t69.5 22.5h418v-50h-116v-262q0 -54 4 -70q10 -38 43 -38q30 0 41 36.5t11 108.5l14 -1q0 -94 -17 -126t-73 -32q-61 0 -88.5 28t-27.5 82v274h-113v-130q0 -56 -1 -117t-13.5 -94.5t-28.5 -40.5q-9 -4 -36 -4
q-19 0 -33 17t-14 43q0 14 2 23q1 4 6 16q20 48 23 68.5t3 114.5v104z" />
    <glyph glyph-name="endash" unicode="&#x2013;" horiz-adv-x="510" 
d="M-2 215h527v-35h-527v35z" />
    <glyph glyph-name="emdash" unicode="&#x2014;" horiz-adv-x="1000" 
d="M-3 215h773v-35h-773v35z" />
    <glyph glyph-name="quoteleft" unicode="&#x2018;" horiz-adv-x="156" 
d="M140 774q-32 0 -53 -12.5t-27 -43.5q-1 -7 0.5 -16t5.5 -10l8 6q9 3 17 3q19 0 34 -13t15 -34q0 -27 -14.5 -44.5t-43.5 -17.5q-27 0 -44.5 21.5t-17.5 56.5q0 120 120 120v-16z" />
    <glyph glyph-name="quoteright" unicode="&#x2019;" horiz-adv-x="156" 
d="M20 609q32 0 51 11q23 14 29 45q-2 11 -2 18t-4 8l-8 -6q-9 -3 -17 -3q-19 0 -34 13t-15 34q0 27 14.5 44.5t43.5 17.5q27 0 44.5 -21.5t17.5 -56.5q0 -120 -120 -120v16z" />
    <glyph glyph-name="quotesinglbase" unicode="&#x201a;" horiz-adv-x="156" 
d="M20 -82q32 0 51 11q23 14 29 45q1 7 -0.5 16t-5.5 10l-8 -6q-9 -3 -17 -3q-19 0 -34 13t-15 34q0 27 14.5 44.5t43.5 17.5q27 0 44.5 -21.5t17.5 -56.5q0 -120 -120 -120v16z" />
    <glyph glyph-name="quotedblleft" unicode="&#x201c;" horiz-adv-x="299" 
d="M284 774q-32 0 -53 -12.5t-27 -43.5q-1 -7 0.5 -16t5.5 -10l8 6q9 3 17 3q19 0 34 -13t15 -34q0 -27 -14.5 -44.5t-43.5 -17.5q-27 0 -44.5 21.5t-17.5 56.5q0 120 120 120v-16zM140 774q-32 0 -53 -12.5t-27 -43.5q-1 -7 0.5 -16t5.5 -10l8 6q9 3 17 3q19 0 34 -13
t15 -34q0 -27 -14.5 -44.5t-43.5 -17.5q-27 0 -44.5 21.5t-17.5 56.5q0 120 120 120v-16z" />
    <glyph glyph-name="quotedblright" unicode="&#x201d;" horiz-adv-x="299" 
d="M164 609q32 0 51 11q23 14 29 45q-2 11 -2 18t-4 8l-8 -6q-9 -3 -17 -3q-19 0 -34 13t-15 34q0 27 14.5 44.5t43.5 17.5q27 0 44.5 -21.5t17.5 -56.5q0 -120 -120 -120v16zM20 609q32 0 51 11q23 14 29 45q-2 11 -2 18t-4 8l-8 -6q-9 -3 -17 -3q-19 0 -34 13t-15 34
q0 27 14.5 44.5t43.5 17.5q27 0 44.5 -21.5t17.5 -56.5q0 -120 -120 -120v16z" />
    <glyph glyph-name="quotedblbase" unicode="&#x201e;" horiz-adv-x="299" 
d="M20 -82q32 0 51 11q23 14 29 45q1 7 -0.5 16t-5.5 10l-8 -6q-9 -3 -17 -3q-19 0 -34 13t-15 34q0 27 14.5 44.5t43.5 17.5q27 0 44.5 -21.5t17.5 -56.5q0 -120 -120 -120v16zM164 -82q32 0 51 11q23 14 29 45q1 7 -0.5 16t-5.5 10l-8 -6q-9 -3 -17 -3q-19 0 -34 13
t-15 34q0 27 14.5 44.5t43.5 17.5q27 0 44.5 -21.5t17.5 -56.5q0 -120 -120 -120v16z" />
    <glyph glyph-name="dagger" unicode="&#x2020;" horiz-adv-x="395" 
d="M196 -188q0 177 -5.5 271t-13.5 172t-8 119q17 18 21 33.5t4 56.5q-68 -11 -85 -15q-48 -10 -51 -10q-38 0 -38 33t38 33q9 0 35 -6q49 -11 102 -19q-12 70 -21 112q-4 18 -4 24q0 37 33 37t33 -37q0 -9 -3 -23q-14 -66 -22 -113q67 10 112 21q17 4 24 4q38 0 38 -33
t-38 -33q-12 0 -35 5q-59 13 -101 20q0 -40 4.5 -55.5t20.5 -35.5q-11 -115 -19 -243.5t-8 -317.5h-13z" />
    <glyph glyph-name="daggerdbl" unicode="&#x2021;" horiz-adv-x="395" 
d="M194 222q0 32 -12.5 80t-12.5 71q17 18 21 33.5t4 57.5q-68 -11 -85 -15q-48 -10 -51 -10q-38 0 -38 33t38 33q9 0 35 -6q49 -11 102 -19q-12 70 -21 112q-4 18 -4 24q0 37 33 37t33 -37q0 -9 -3 -23q-14 -66 -22 -113q67 10 112 21q17 4 24 4q38 0 38 -33t-38 -33
q-12 0 -35 5q-59 13 -101 20q0 -41 4 -56.5t21 -35.5q0 -27 -12.5 -74t-12.5 -76q0 -32 12.5 -80t12.5 -71q-15 -19 -20 -36t-5 -55q70 12 112 21q18 4 24 4q38 0 38 -33t-38 -33q-4 0 -45.5 9t-90.5 16q9 -57 15 -84q10 -46 10 -52q0 -37 -33 -37t-33 37q0 12 5 35
q13 59 20 101q-69 -10 -100.5 -17.5t-36.5 -7.5q-38 0 -38 33t38 33q12 0 35 -5q58 -13 101 -20q0 43 -3.5 56.5t-21.5 33.5q0 27 12.5 75t12.5 77z" />
    <glyph glyph-name="bullet" unicode="&#x2022;" horiz-adv-x="238" 
d="M122 358q43 0 72.5 -29.5t29.5 -72.5t-29.5 -72.5t-72.5 -29.5t-72.5 29.5t-29.5 72.5t29.5 72.5t72.5 29.5z" />
    <glyph glyph-name="ellipsis" unicode="&#x2026;" horiz-adv-x="688" 
d="M116 113q26 0 43.5 -17.5t17.5 -43.5t-17.5 -43.5t-43.5 -17.5t-43.5 17.5t-17.5 43.5t17.5 43.5t43.5 17.5zM351 113q26 0 43.5 -17.5t17.5 -43.5t-17.5 -43.5t-43.5 -17.5t-43.5 17.5t-17.5 43.5t17.5 43.5t43.5 17.5zM586 113q26 0 43.5 -17.5t17.5 -43.5t-17.5 -43.5
t-43.5 -17.5t-43.5 17.5t-17.5 43.5t17.5 43.5t43.5 17.5z" />
    <glyph glyph-name="perthousand" unicode="&#x2030;" horiz-adv-x="728" 
d="M461 125q0 -58 -40 -97q-36 -35 -82 -35t-82 33q-41 38 -41 99q0 58 41 97q36 34 82 34t82 -33q40 -37 40 -98zM399 125q0 67 -12 95.5t-48 28.5q-33 0 -46.5 -29.5t-13.5 -94.5q0 -66 12 -95.5t48 -29.5q33 0 46.5 30t13.5 95zM264 522q0 -58 -40 -97q-36 -35 -82 -35
t-82 33q-40 37 -40 99q0 59 40 97q36 34 82 34t82 -33q40 -37 40 -98zM202 522q0 67 -12 96t-48 29q-33 0 -46.5 -30t-13.5 -95q0 -67 12 -96.5t48 -29.5q33 0 46.5 30.5t13.5 95.5zM355 644h20l-251 -644h-20zM725 125q0 -58 -40 -97q-36 -35 -82 -35t-82 33q-41 38 -41 99
q0 58 41 97q36 34 82 34t82 -33q40 -37 40 -98zM663 125q0 67 -12 95.5t-48 28.5q-33 0 -46.5 -29.5t-13.5 -94.5q0 -66 12 -95.5t48 -29.5q33 0 46.5 30t13.5 95z" />
    <glyph glyph-name="guilsinglleft" unicode="&#x2039;" horiz-adv-x="220" 
d="M203 427h22l-123 -217l89 -210h-27l-144 211z" />
    <glyph glyph-name="guilsinglright" unicode="&#x203a;" horiz-adv-x="220" 
d="M22 427l183 -216l-144 -211h-27l89 210l-123 217h22z" />
    <glyph glyph-name="Euro" unicode="&#x20ac;" horiz-adv-x="600" 
d="M583 268q0 -277 -216 -277q-41 0 -93 18.5t-93 53.5q-89 78 -97 215h-74l10 33h63q0 14 2 42h-75l10 33h70q18 104 92 181q83 86 167 86q98 0 164 -89l51 94h4v-290l-9 5q0 129 -71 207q-60 65 -124 65q-70 0 -110 -80q-30 -62 -36 -179h197l-10 -33h-189v-31v-11h199
l-10 -33h-188q5 -132 41 -205t109 -73q114 0 160.5 74.5t46.5 193.5h9z" />
    <glyph glyph-name="trademark" unicode="&#x2122;" horiz-adv-x="882" 
d="M366 645v-167h-8q-13 95 -42 130q-25 30 -72 30l-13 -1q-2 -2 -2 -20v-311q0 -24 9 -26q14 -6 82 -6v-7h-255v7q68 0 82 6q3 0 6 1q4 3 4 25v310q0 17 -2 20q-2 2 -14 2q-45 0 -69 -29q-29 -36 -44 -130h-8v166h346zM533 645l99 -274l82 274h163v-7q-26 0 -42.5 -2
t-35.5 -9q-3 -5 -3 -22v-299q0 -24 11 -26q15 -6 70 -6v-7h-225v7q14 0 33 0.5t30 5.5q3 0 6 1q4 3 4 25l-2 328q-3 0 -6 -9l-107 -358h-13l-126 359l-5 9q-1 -6 -1 -10v-245q0 -65 16.5 -85.5t65.5 -20.5v-7h-166v7q40 0 57 21t17 71v181q0 51 -15.5 71t-58.5 20v7h152z
" />
    <glyph glyph-name="Omega" unicode="&#x2126;" horiz-adv-x="609" 
d="M482 381q0 131 -42.5 196.5t-127.5 65.5q-84 0 -126.5 -66.5t-42.5 -195.5q0 -107 32 -175.5t86 -86.5v-119h-229v168h12q0 -63 42 -96q47 -37 143 -37v78q-89 26 -146 93q-63 74 -63 175q0 121 94 200q86 72 198 72q113 0 197 -69q94 -77 94 -203q0 -101 -62 -175
q-56 -67 -146 -93v-78q96 0 140.5 35t44.5 98h12v-168h-228v119q54 18 86 87t32 175z" />
    <glyph glyph-name="partialdiff" unicode="&#x2202;" 
d="M188 590q15 6 26 6q36 0 36 -41q0 -23 -13 -40q-18 -23 -54 -23q-25 0 -33.5 12t-8.5 29q0 42 36 77q44 43 117 43q87 0 131 -67q39 -59 39 -160q0 -83 -25 -173q-31 -113 -87 -179q-70 -83 -168 -83q-80 0 -122.5 40.5t-42.5 114.5q0 99 57 179q65 91 164 91
q53 0 76 -23q18 -18 25 -63q10 44 21 89q18 84 18 119q0 52 -21.5 79.5t-60.5 27.5q-46 0 -77 -20q-23 -15 -33 -35zM263 397q-64 0 -107 -128q-35 -103 -35 -183q0 -39 13.5 -62.5t45.5 -23.5q62 0 101 85q47 102 47 223q0 42 -15 65.5t-50 23.5z" />
    <glyph glyph-name="Delta" unicode="&#x2206;" horiz-adv-x="487" 
d="M394 23l-169 472l-170 -472h339zM251 645l231 -645h-462z" />
    <glyph glyph-name="product" unicode="&#x220f;" horiz-adv-x="895" 
d="M278 623v-765q0 -29 4 -37q2 -4 13.5 -8.5t40 -7.5t57.5 -3v-11h-354v11q30 0 58 3t39.5 7.5t15 11t3.5 34.5v723q0 28 -4 35q-2 4 -14 8.5t-40 7.5t-58 3v10h855v-10q-31 0 -58 -3t-39.5 -8t-14.5 -8q-4 -7 -4 -35v-724q0 -29 4 -37q2 -4 13.5 -8.5t39.5 -7.5t57 -3v-10
h-356v10q30 0 59 3t40.5 7.5t15 11t3.5 34.5v766h-376z" />
    <glyph glyph-name="summation" unicode="&#x2211;" horiz-adv-x="675" 
d="M396 259l-279 -407h359q92 0 129 35q41 39 53 148h12v-244h-650v11l289 424l-289 409v10h617v-200h-12q0 83 -39 123q-43 45 -140 45h-301z" />
    <glyph glyph-name="fraction" unicode="&#x2215;" horiz-adv-x="381" 
d="M331 645h20l-251 -645h-20z" />
    <glyph glyph-name="periodcentered" unicode="&#x2219;" horiz-adv-x="158" 
d="M81 305q26 0 43.5 -17.5t17.5 -43.5t-17.5 -43.5t-43.5 -17.5t-43.5 17.5t-17.5 43.5t17.5 43.5t43.5 17.5z" />
    <glyph glyph-name="radical" unicode="&#x221a;" 
d="M191 -24l-115 294l-51 -28l-11 27l79 47l105 -269l233 598h20z" />
    <glyph glyph-name="infinity" unicode="&#x221e;" horiz-adv-x="477" 
d="M198 223q17 47 50.5 66.5t78.5 19.5q48 0 84 -40t36 -104q0 -54 -29 -85q-32 -35 -91 -35q-33 0 -60 27q-22 22 -32 51q-13 -44 -53 -62q-29 -13 -68 -13q-46 0 -78 35q-36 39 -36 100q0 50 30 82t82 32q33 0 58 -25q20 -20 28 -49zM189 204q-10 35 -31.5 55t-49.5 20
q-41 0 -65.5 -27.5t-24.5 -67.5t19 -69t50 -29q58 0 82 44q10 19 20 74zM244 145q12 -38 36.5 -61t51.5 -23q49 0 72.5 29.5t23.5 73.5q0 45 -20 75.5t-54 30.5q-60 0 -86 -48q-2 -5 -24 -77z" />
    <glyph glyph-name="integral" unicode="&#x222b;" 
d="M278 680v-632q0 -67 -46.5 -122.5t-107.5 -55.5q-39 0 -64 12.5t-32.5 31t-7.5 34.5q0 28 27 45q11 7 25 7q19 0 33.5 -13.5t14.5 -35.5q0 -40 -39 -47q7 -14 14 -20t22 -6q40 0 54 22.5t14 83.5v632q0 67 46.5 122.5t107.5 55.5q39 0 64 -12.5t32.5 -31t7.5 -34.5
q0 -28 -27 -45q-11 -7 -25 -7q-19 0 -33.5 13.5t-14.5 35.5q0 40 39 47q-7 14 -14 20t-22 6q-40 0 -54 -22.5t-14 -83.5z" />
    <glyph glyph-name="approxequal" unicode="&#x2248;" 
d="M144 237q-18 0 -31.5 -11.5t-12.5 -28.5h-16q0 30 15.5 49t44.5 19q23 0 91.5 -21.5t81.5 -21.5q18 0 32 12q13 11 12 28h16q0 -30 -15.5 -49t-44.5 -19q-19 0 -87.5 21.5t-85.5 21.5zM144 145q-18 0 -31.5 -11.5t-12.5 -28.5h-16q0 30 15.5 49t44.5 19q23 0 91.5 -21.5
t81.5 -21.5q18 0 32 12q13 11 12 28h16q0 -30 -15.5 -49t-44.5 -19q-19 0 -87.5 21.5t-85.5 21.5z" />
    <glyph glyph-name="notequal" unicode="&#x2260;" 
d="M168 144h-88v24h112l45 45h-157v24h181l105 106l17 -17l-88 -89h88v-24h-112l-45 -45h157v-24h-181l-105 -106l-17 17z" />
    <glyph glyph-name="lessequal" unicode="&#x2264;" 
d="M383 -24h-303v24h303v-24zM80 177v28l303 109v-28l-264 -95l264 -95v-28z" />
    <glyph glyph-name="greaterequal" unicode="&#x2265;" 
d="M80 -24v24h303v-24h-303zM383 177l-303 -109v28l264 95l-264 95v28l303 -109v-28z" />
    <glyph glyph-name="lozenge" unicode="&#x25ca;" horiz-adv-x="354" 
d="M181 26l138 231l-138 231l-137 -233zM190 0h-19l-151 255l150 257h22l151 -255z" />
    <glyph glyph-name="fi" unicode="&#xf001;" horiz-adv-x="513" 
d="M337 398h-150v-349q0 -21 3 -27q2 -4 9 -6.5t28 -4.5t27 -1v-10h-233v10q14 0 33 1t34 7q6 6 6 31v349h-74v18h74v59q0 78 45 125q50 53 145 53q62 0 92 -13t44 -44q8 -18 8 -32q0 -29 -28 -46q-11 -7 -25 -7q-19 0 -33.5 13.5t-14.5 35.5q0 40 39 47q-9 17 -21 25
q-21 13 -63 13q-57 0 -76 -20t-19 -86v-123h244v-367q0 -20 3 -27q2 -4 9 -6.5t25 -4t35 -1.5v-10h-234v10q12 1 28 1t34 7q6 6 6 31v349z" />
    <glyph glyph-name="fl" unicode="&#xf002;" horiz-adv-x="560" 
d="M377 416v96q-20 -2 -36.5 11.5t-16.5 36.5q0 40 39 47q-10 22 -29 30t-54 8q-52 0 -67.5 -19.5t-15.5 -86.5v-123h180zM377 49v349h-180v-349q0 -21 3 -26q2 -3 10 -6t29 -5t41 -2v-10h-260v10q19 0 40.5 2t37.5 8q6 5 6 29v349h-84v18h84v59q0 74 48 126t121 52h198
v-604q0 -20 3 -26q2 -3 9.5 -6t28.5 -5t42 -2v-10h-261v10q19 0 40.5 2t37.5 8q6 5 6 29z" />
  </font>
</defs>
</svg>
